Loading...
Error

Скачать Игра на выживание / Surviving the Game (Эрнест Р. Дикерсон) [1994, боевик, триллер, драма, криминал, приключения, DVDRip] [AVO] (Горчаков) + [AVO] (Михалёв) + [AVO] (Володарский) + [AVO] (Дольский) торрент без регистрации

 
Статистика раздачи
Размер:  2,03 GB   |    Скачан:  135 раз
Сидов:  1  [  0 KB/s  ]  
 
Автор Сообщение

leon030982

[] 

Игра на выживание / Surviving the Game


Год выпуска: 1994
Страна: США
Жанр: боевик, триллер, драма, криминал, приключения
Продолжительность: 01:32:16
Перевод 1: Авторский (одноголосый закадровый) [Горчаков]
Перевод 2: Авторский (одноголосый закадровый) [Михалёв - отдельным файлом]
Перевод 3: Авторский (одноголосый закадровый) [Володарский - отдельным файлом]
Перевод 4: Авторский (одноголосый закадровый) [Дольский - отдельным файлом]
Cубтитры: нет

Режиссер: Эрнест Р. Дикерсон / Ernest R. Dickerson

В ролях: Рутгер Хауэр, Айс-Ти, Чарльз С. Даттон, Джон К. МакГинли, Уильям МакНамара, Джефф Кори, Гэри Бьюзи, Ф. Мюррэй Абрахам

Описание: Одинокого, потерявшего семью бродягу приглашают поработать «инструктором по выживанию». Ничего не ведающего парня привозят на отдаленную лесную заимку, где собралась компания охотников. На следующее утро после обильного ужина выясняется, что дичью на предстоящей охоте будет не кто иной, как приглашенный бродяга. Хозяин заимки дает ему время для того, чтобы тот смог убежать подальше от охотников. И начинается «игра на выживание»: вооруженные до зубов «преследователи» на вездеходах гонят одинокого безоружного человека. Но жажда жизни и мести оказываются сильнее животного страха. И тогда преследователи из охотников превращаются в жертвы.

Сэмпл: http://multi-up.com/584097
Качество видео: DVDRip
Формат видео: AVI
Видео: 688x384 (16:9), 25 fps, DivX5 ~1800 kbps avg, 0.27 bit/pixel
Аудио 1: 48 kHz, AC3 Dolby Digital, 2/0 (L,R) ch, ~192.00 kbps avg (Горчаков)
Аудио 2: 48 kHz, AC3 Dolby Digital, 3/2 (L,C,R,l,r) + LFE ch, ~384.00 kbps avg [(Михалёв) - отдельным файлом]
Аудио 3: 48 kHz, AC3 Dolby Digital, 3/2 (L,C,R,l,r) + LFE ch, ~384.00 kbps avg [(Володарский) - отдельным файлом]
Аудио 4: 48 kHz, AC3 Dolby Digital, 3/2 (L,C,R,l,r) + LFE ch, ~384.00 kbps avg [(Дольский) - отдельным файлом]
Общее
Полное имя : E:\Игра на выживание (1994) Горчаков.avi
Формат : AVI
Формат/Информация : Audio Video Interleave
Размер файла : 1,29 Гбайт
Продолжительность : 1 ч. 32 м.
Общий поток : 2002 Кбит/сек
Программа кодирования : VirtualDubModRus 1.5.10.2 (build 2542/release)
Библиотека кодирования : VirtualDubMod build 2542/release
Видео
Идентификатор : 0
Формат : MPEG-4 Visual
Профиль формата : Advanced Simple@L5
Параметр BVOP формата : 1
Параметр QPel формата : Нет
Параметр GMC формата : Без точки перехода
Параметр матрицы формата : Default (H.263)
Идентификатор кодека : DX50
Идентификатор кодека/Подсказка : DivX 5
Продолжительность : 1 ч. 32 м.
Битрейт : 1800 Кбит/сек
Ширина : 688 пикс.
Высота : 384 пикс.
Соотношение сторон : 16:9
Частота кадров : 25,000 кадр/сек
Цветовое пространство : YUV
Подвыборка цветности : 4:2:0
Битовая глубина : 8 бит
Тип развёртки : Прогрессивная
Метод сжатия : С потерями
Бит/(Пиксели*Кадры) : 0.272
Размер потока : 1,16 Гбайт (90%)
Библиотека кодирования : XviD 1.2.1 (UTC 2008-12-04)
Аудио
Идентификатор : 1
Формат : AC-3
Формат/Информация : Audio Coding 3
Расширение режима : CM (complete main)
Идентификатор кодека : 2000
Продолжительность : 1 ч. 32 м.
Вид битрейта : Постоянный
Битрейт : 192 Кбит/сек
Каналы : 2 канала
Расположение каналов : Front: L R
Частота : 48,0 КГц
Битовая глубина : 16 бит
Метод сжатия : С потерями
Размер потока : 127 Мбайт (10%)
Выравнивание : Разделение по промежуткам
Продолжительность промежутка : 40 мс. (1,00 видеокадр)
Время предзагрузки промежутка : 500 ms



Скачать Игра.на.выживание.Surviving.the.Game.(Эрнест.Р.Дикерсон).[1994.боевик.триллер.драма.криминал.приключения.DVDRip].[AVO].(Горчаков).+.[AVO].(Михалёв).+.[AVO].(Володарский).+.[AVO].(Дольский).torrent без регистрации
Золото ЗОЛОТАЯ РАЗДАЧА! СКАЧАННОЕ НЕ ЗАСЧИТЫВАЕТСЯ! Золото
Дата: Зарегистрирован   [ Тип: внутренний ] Как тут cкачать?
MAGNET ссылка
MAGNET ссылка


Скачать .torrent

11 KB

Статус: проверено DHT
Скачан: торрент - 135 раз, раздача полностью - 10 раз
Размер: 2,03 GB
Оценка:  5 (Голосов: 2)
Поблагодарили: 3
Поделиться ссылкой на эту раздачу с друзьями:
В контактеFacebookОдноклассникиTwitterLivejournalМой МирLiveinternet
 

 

leon030982

[] 

отличный фильм ay
 
Показать сообщения:    


Вы не можете начинать темы
Вы не можете отвечать на сообщения
Вы не можете редактировать свои сообщения
Вы не можете удалять свои сообщения
Вы не можете голосовать в опросах
Вы не можете прикреплять файлы к сообщениям
Вы можете скачивать файлы