Loading...
Error

Скачать Театр крови / Theatre of Blood (Дуглас Хикокс) [1973, ужасы, комедия, детектив, HDTVRip] [MVO] торрент без регистрации

 
Статистика раздачи
Размер:  745 MB   |    Скачан:  111 раз

Полного источника не было: 25 минут

 
Автор Сообщение

Marsianka

[] 

«At your own risk»

Год выпуска: 1973
Страна: Великобритания
Жанр: ужасы, комедия, детектив
Продолжительность: 01:39:53
Перевод: Профессиональный (многоголосый, закадровый)
Оригинальная аудиодорожка: нет
Cубтитры: нет

Режиссер: Дуглас Хикокс / Douglas Hickox

В ролях: Винсент Прайс, Дайана Ригг, Иэн Хендри, Гарри Эндрюс, Корэл Браун, Роберт Кут, Джек Хоукинс, Майкл Хордерн, Артур Лоу, Роберт Морли...

Описание: В Лондоне объявляется оригинальный убийца его жертвами становятся театральные критики, а сами убийства выглядят словно сошедшими со страниц Уильяма Шекспира. Полицейские начинает подозревать в преступлениях некоего Эдварда Лайонхарта, эгоцентричного актёра, недавно совершившего самоубийство из-за того, что очередная награда обошла его стороной. У подозрений полиции есть все основания, ведь тело Лайонхарта так и не было найдено.

Качество видео: HDTVRip [Theater.Of.Blood.1973.DVB.HDTV.1080i.MGMHDUK.[satnews] спасибо Val de Mar
Формат видео: AVI

Видео: 608x368 (1.652:1), XViD 905 Кбит/сек 25,000 fps / Бит/(Пиксели*Кадры): 0.162
Аудио: МР3 Russian 128 kbps 2.0 / 48 kHz | MVO R5

По версии Кинопоиска «Театр крови» в списках фильмов "Лучшие фильмы ужасов 500" занимает 159 место.


Раздача от:

Общее
Полное имя : Teatr.krovi.1973.P.HDTVRip.745MB_[Youtracker]_by_avproh.avi
Формат : AVI
Формат/Информация : Audio Video Interleave
Размер файла : 745 Мбайт
Продолжительность : 1 ч. 39 м.
Общий поток : 1043 Кбит/сек
Программа кодирования : VirtualDubMod 1.5.10.3 (build 2550/release)
Библиотека кодирования : VirtualDubMod build 2550/release

Видео
Идентификатор : 0
Формат : MPEG-4 Visual
Профиль формата : Advanced Simple@L5
Параметр BVOP формата : 1
Параметр QPel формата : Нет
Параметр GMC формата : Без точки перехода
Параметр матрицы формата : Выборочная
Идентификатор кодека : XVID
Идентификатор кодека/Подсказка : XviD
Продолжительность : 1 ч. 39 м.
Битрейт : 905 Кбит/сек
Ширина : 608 пикселей
Высота : 368 пикселей
Соотношение сторон : 1,652
Частота кадров : 25,000 кадров/сек
Цветовое пространство : YUV
Субдискретизация насыщенности : 4:2:0
Битовая глубина : 8 бит
Тип развёртки : Прогрессивная
Метод сжатия : С потерями
Бит/(Пиксели*Кадры) : 0.162
Размер потока : 646 Мбайт (87%)
Библиотека кодирования : XviD 65

Аудио
Идентификатор : 1
Формат : MPEG Audio
Версия формата : Version 1
Профиль формата : Layer 3
Режим : Joint stereo
Расширение режима : MS Stereo
Идентификатор кодека : 55
Идентификатор кодека/Подсказка : MP3
Продолжительность : 1 ч. 39 м.
Вид битрейта : Постоянный
Битрейт : 128 Кбит/сек
Каналы : 2 канала
Частота : 48,0 КГц
Метод сжатия : С потерями
Размер потока : 91,5 Мбайт (12%)
Выравнивание : Соединение по промежуткам
Продолжительность промежутка : 40 мс. (1,00 видеокадр)
Время предзагрузки промежутка : 504 мс.



Скачать Театр.крови.Theatre.of.Blood.(Дуглас.Хикокс).[1973.ужасы.комедия.детектив.HDTVRip].[MVO].torrent без регистрации
Золото ЗОЛОТАЯ РАЗДАЧА! СКАЧАННОЕ НЕ ЗАСЧИТЫВАЕТСЯ! Золото
Дата: Зарегистрирован   [ Тип: внутренний ] Как тут cкачать?
MAGNET ссылка
MAGNET ссылка


Скачать .torrent

15 KB

Статус: проверено DHT
Скачан: торрент - 111 раз, раздача полностью - 2 раз
Размер: 745 MB
Оценка:  - (Голосов: 0)
Поблагодарили: 0
Поделиться ссылкой на эту раздачу с друзьями:
В контактеFacebookОдноклассникиTwitterLivejournalМой МирLiveinternet
 

 
Показать сообщения:    


Вы не можете начинать темы
Вы не можете отвечать на сообщения
Вы не можете редактировать свои сообщения
Вы не можете удалять свои сообщения
Вы не можете голосовать в опросах
Вы не можете прикреплять файлы к сообщениям
Вы можете скачивать файлы