Loading...
Error

Скачать Однажды в Марселе / MR 73 (Оливье Маршаль) [2008, триллер, драма, криминал, HDRip] [MVO] торрент без регистрации

 
Статистика раздачи
Размер:  751 MB   |    Скачан:  121 раз
Сидов:  1  [  0 KB/s  ]  
 
Автор Сообщение

Marsianka

[] 

Информация о фильме
Название: Однажды в Марселе
Оригинальное название: MR 73
Год выхода: 2008
Жанр: триллер, драма, криминал
Режиссер: Оливье Маршаль / Olivier Marchal
В ролях: Даниель Отой, Оливия Бонами, Катрин Маршаль, Франсис Рено, Джеральд Ларош, Филипп Наон, Вирджиния Андерсон, Свон Демаршан

О фильме:
Серийный убийца терроризирует Марсель, и по его следу идет полицейский комиссар Луи Шнейдер. Этому безусловно лучшему в своем деле полицейскому мешают нормально жить и работать многочисленные призраки из прошлого и неодолимое пристрастие к алкоголю.
Кошмары прошлого преследуют и Жюстину: 25 лет назад прямо на глазах у девочки ее родители погибли от руки Шарля Субра. После очередного скандала Шнейдера отстраняют от службы, но тот на свой страх и риск продолжает поиски убийцы. А Шарля Субра за безупречное поведение досрочно выпускают из тюрьмы, после чего пути Жюстины и Шнейдера непременно пересекутся



Страна: Франция
Продолжительность: 02:05:11
Перевод: Профессиональный (многоголосый закадровый)

Файл
Кодек: XviD
Качество: HDRip [BDRip 720p]
Видео: 640x272 (2.35:1), 23.976 fps, 702 Kbps, 0.168 Bits/(Pixel*Frame)
Звук: MP3, 48 KHz, 128 Kbps, 2 channels

Семпл
General
Complete name : D:Odnazhdy.v.Marsele.2008.HDRip.751mb.youtracker.net.avi
Format : AVI
Format/Info : Audio Video Interleave
File size : 751 MiB
Duration : 2h 5mn
Overall bit rate : 839 Kbps
Writing application : VirtualDubMod 1.5.10.2 (build 2540/release)
Writing library : VirtualDubMod build 2540/release

Video
ID : 0
Format : MPEG-4 Visual
Format profile : Advanced Simple@L5
Format settings, BVOP : 1
Format settings, QPel : No
Format settings, GMC : No warppoints
Format settings, Matrix : Custom
Codec ID : XVID
Codec ID/Hint : XviD
Duration : 2h 5mn
Bit rate : 702 Kbps
Width : 640 pixels
Height : 272 pixels
Display aspect ratio : 2.35:1
Frame rate : 23.976 fps
Color space : YUV
Chroma subsampling : 4:2:0
Bit depth : 8 bits
Scan type : Progressive
Compression mode : Lossy
Bits/(Pixel*Frame) : 0.168
Stream size : 628 MiB (84%)
Writing library : XviD 1.2.1 (UTC 2008-12-04)

Audio
ID : 1
Format : MPEG Audio
Format version : Version 1
Format profile : Layer 3
Mode : Joint stereo
Mode extension : MS Stereo
Codec ID : 55
Codec ID/Hint : MP3
Duration : 2h 5mn
Bit rate mode : Constant
Bit rate : 128 Kbps
Channel(s) : 2 channels
Sampling rate : 48.0 KHz
Compression mode : Lossy
Stream size : 115 MiB (15%)
Alignment : Aligned on interleaves
Interleave, duration : 42 ms (1.00 video frame)
Interleave, preload duration : 504 ms











Скачать Однажды.в.Марселе.MR.73.(Оливье.Маршаль).[2008.триллер.драма.криминал.HDRip].[MVO].torrent без регистрации
Золото ЗОЛОТАЯ РАЗДАЧА! СКАЧАННОЕ НЕ ЗАСЧИТЫВАЕТСЯ! Золото
Дата: Зарегистрирован   [ Тип: внутренний ] Как тут cкачать?
MAGNET ссылка
MAGNET ссылка


Скачать .torrent

15 KB

Статус: проверено DHT
Скачан: торрент - 121 раз, раздача полностью - 3 раз
Размер: 751 MB
Оценка:  - (Голосов: 0)
Поблагодарили: 1
Поделиться ссылкой на эту раздачу с друзьями:
В контактеFacebookОдноклассникиTwitterLivejournalМой МирLiveinternet
 

 
Показать сообщения:    


Вы не можете начинать темы
Вы не можете отвечать на сообщения
Вы не можете редактировать свои сообщения
Вы не можете удалять свои сообщения
Вы не можете голосовать в опросах
Вы не можете прикреплять файлы к сообщениям
Вы можете скачивать файлы