Loading...
Error

Скачать Неугомонная / Restless (сезон 01) (Эдвард Холл) [2012, драма, триллер, HDTVRip-AVC] [MVO (Baibako)] торрент без регистрации

 
Статистика раздачи
Размер:  2,38 GB   |    Скачан:  137 раз
Сидов:  1  [  0 KB/s  ]  
 
Автор Сообщение

МихаНЕзатор

[] 

Название: Неугомонная
Оригинальное название: Restless
Год выпуска: 2012
Жанр: драма, триллер
Режиссер: Эдвард Холл

В ролях: Хэйли Этвелл, Руфус Сьюэлл, Мишел Докери, Майкл Гэмбон, Шарлотта Рэмплинг, Текла Ретен, Адриан Скарборо, Берти Карвел, Бернард Шир, Александр Фелинг, Кнвин Гатри, Том Брук, Энтони Калф, Мариус Бота, Дэвид Батлер, Марк Элдеркин, Джулиан Ферт, Рональд Френс, Энгус Имри, Конрад Кемп, Лиза Кинг, Венсан Лаурентис, Гвилим Ли, Даррен Морфитт, Джеймс Нортон, Роб Остлер, Рикардо Пинто, Дженни Стэд, Дженнифер Штейн, Эдвин Томас, Джо Ваз, Эд Пирс

Описание: Руфь Гилмартин - аспирантка Оксфордского университета. Она узнает, что ее мать Салли Гилмартин ведет двойную жизнь и на деле является бывшей шпионкой Евой Дилекторской. В далеком 1939 году юную идеалистку Еву влюбляет в себя и вербует агент английской разведки Ромер. После трагического провала одной из миссий Салли вынуждена "залечь на дно", и вот теперь, спустя тридцать лет, она решает посвятить дочь в тайны своей жизни и просит разыскать Ромера...



Страна: Великобритания
Продолжительность: 02 x ~ 01:28:00
Перевод: Профессиональный (многоголосый, закадровый) - Baibako
Субтитры: Нет

Перевод: vipere
Озвучка: Татьяна Оболевич, Лира Грим, Сергей Корчак и Дим Димыч

Качество: HDTVRip
Формат: mp4
Видео: AVC, 1536 Кбит/сек 720x400 25,000 кадров/сек
Аудио rus: AAC, 2 канала, 48,0 КГц 192 Кбит/сек
Аудио eng: AAC, 2 канала, 48,0 КГц 192 Кбит/сек

Релиз от:
Формат : MPEG-4
Профиль формата : Base Media
Идентификатор кодека : isom
Размер файла : 1,19 Гбайт
Продолжительность : 1 ч. 28 м.
Общий поток : 1916 Кбит/сек
Дата кодирования : UTC 2013-01-14 00:56:50
Дата пометки : UTC 2013-01-14 00:56:50

Видео
Идентификатор : 1
Формат : AVC
Формат/Информация : Advanced Video Codec
Профиль формата : Baseline@L3.0
Параметр CABAC формата : Нет
Параметр ReFrames формата : 3 кадра
Идентификатор кодека : avc1
Идентификатор кодека/Информация : Advanced Video Coding
Продолжительность : 1 ч. 28 м.
Вид битрейта : Переменный
Битрейт : 1536 Кбит/сек
Максимальный битрейт : 10000 Кбит/сек
Ширина : 720 пикс.
Высота : 400 пикс.
Соотношение сторон : 16:9
Режим частоты кадров : Постоянный
Частота кадров : 25,000 кадр/сек
Цветовое пространство : YUV
Подвыборка цветности : 4:2:0
Битовая глубина : 8 бит
Тип развёртки : Прогрессивная
Бит/(Пиксели*Кадры) : 0.213
Размер потока : 970 Мбайт (80%)
Заголовок : restless 1x01 720p_hdtv_x264-fov
Библиотека кодирования : x264 core 125 r2208 d9d2288
Настройки программы : cabac=0 / ref=3 / deblock=1:0:0 / analyse=0x1:0x111 / me=hex / subme=7 / psy=1 / psy_rd=1.00:0.00 / mixed_ref=1 / me_range=16 / chroma_me=1 / trellis=1 / 8x8dct=0 / cqm=0 / deadzone=21,11 / fast_pskip=1 / chroma_qp_offset=-2 / threads=6 / lookahead_threads=1 / sliced_threads=0 / nr=0 / decimate=1 / interlaced=0 / bluray_compat=0 / constrained_intra=0 / bframes=0 / weightp=0 / keyint=250 / keyint_min=25 / scenecut=40 / intra_refresh=0 / rc_lookahead=40 / rc=2pass / mbtree=1 / bitrate=1536 / ratetol=1.0 / qcomp=0.60 / qpmin=0 / qpmax=69 / qpstep=4 / cplxblur=20.0 / qblur=0.5 / vbv_maxrate=10000 / vbv_bufsize=10000 / nal_hrd=vbr / ip_ratio=1.40 / aq=1:1.00
Дата кодирования : UTC 2013-01-13 22:58:44
Дата пометки : UTC 2013-01-14 00:59:50

Аудио #1
Идентификатор : 2
Формат : AAC
Формат/Информация : Advanced Audio Codec
Профиль формата : LC
Идентификатор кодека : 40
Продолжительность : 1 ч. 28 м.
Вид битрейта : Переменный
Битрейт : 192 Кбит/сек
Максимальный битрейт : 201 Кбит/сек
Каналы : 2 канала
Расположение каналов : Front: L R
Частота : 48,0 КГц
Метод сжатия : С потерями
Размер потока : 122 Мбайт (10%)
Язык : Russian
Дата кодирования : UTC 2013-01-14 00:59:19
Дата пометки : UTC 2013-01-14 00:59:50

Аудио #2
Идентификатор : 3
Формат : AAC
Формат/Информация : Advanced Audio Codec
Профиль формата : LC
Идентификатор кодека : 40
Продолжительность : 1 ч. 28 м.
Вид битрейта : Переменный
Битрейт : 192 Кбит/сек
Максимальный битрейт : 201 Кбит/сек
Каналы : 2 канала
Расположение каналов : Front: L R
Частота : 48,0 КГц
Метод сжатия : С потерями
Размер потока : 122 Мбайт (10%)
Язык : English
Дата кодирования : UTC 2013-01-14 00:59:42
Дата пометки : UTC 2013-01-14 00:59:50



Скачать Неугомонная.Restless.(сезон.01).(Эдвард.Холл).[2012.драма.триллер.HDTVRip-AVC].[MVO.(Baibako)].torrent без регистрации
Золото ЗОЛОТАЯ РАЗДАЧА! СКАЧАННОЕ НЕ ЗАСЧИТЫВАЕТСЯ! Золото
Дата: Зарегистрирован   [ Тип: внутренний ] Как тут cкачать?
MAGNET ссылка
MAGNET ссылка


Скачать .torrent

13 KB

Статус: проверено DHT
Скачан: торрент - 137 раз, раздача полностью - 11 раз
Размер: 2,38 GB
Оценка:  - (Голосов: 0)
Поблагодарили: 0
Поделиться ссылкой на эту раздачу с друзьями:
В контактеFacebookОдноклассникиTwitterLivejournalМой МирLiveinternet
 

 
Показать сообщения:    


Вы не можете начинать темы
Вы не можете отвечать на сообщения
Вы не можете редактировать свои сообщения
Вы не можете удалять свои сообщения
Вы не можете голосовать в опросах
Вы не можете прикреплять файлы к сообщениям
Вы можете скачивать файлы