Loading...
Error

Скачать Сталинград / Stalingrad (Йозеф Вильсмайер / Joseph Vilsmaier) [1993 г., драма, военный, BDRip] [DVO] + [вставки AVO (Живов)] торрент без регистрации

 
Статистика раздачи
Размер:  1,45 GB   |    Скачан:  230 раз
Сидов:  1  [  0 KB/s  ]   Личеров:  1  [  0 KB/s  ]  
 
Автор Сообщение

leon030982

[] 

Сталинград / Stalingrad
«Они сражались в аду....»


Год выпуска: 1993
Страна: Германия
Жанр: драма, военный
Продолжительность: 02:17:51
Перевод: Профессиональный (двухголосый закадровый) - c вставками Ю. Живов(на непереведённые места)

Субтитры: нет

Режиссер: Йозеф Вильсмайер

В ролях: Доминик Хорвиц, Томас Кретчманн, Йохен Никель, Себастиан Рудолф, Мартин Бенрат, Сильвестр Грот, Хайнц Эмигхольц, Карел Херманек, Дитер Окрас, Оливер Браумис, Марк Кун, Зденек Венцль, Дана Ваврова

Описание: Зима 1942 года. Шестая армия вермахта сражается в разрушенном до основания Сталинграде. Взвод элитных немецких солдат, в первой же битве потерявший больше половины личного состава, ведет отчаянную борьбу за выживание.
Свист пуль и рев «катюш», голод и холод доводят их до грани безумия. Уже почти ничего не удерживает солдат на тонкой линии между жизнью и смертью. После всего, что они видели, после утраты всех идеалов призыв фюрера «стоять до конца» приобретает для них совсем другое, гораздо более страшное значение…




Качество: BDRip
Формат: AVI
Видео кодек: XviD
Аудио кодек: AC3
Видео: 720x384 (1.88:1), 23.976 fps, 1312 kbps, 0.198 bit/pixel
Аудио: 48 kHz, AC3 Dolby Digital, 2 (L,R) ch, ~192.00 kbps avg
Общее
Полное имя : A:\раздачи\Stalingrad.1993.BDRip.avi
Формат : AVI
Формат/Информация : Audio Video Interleave
Профиль формата : OpenDML
Настройки формата : rec
Размер файла : 1,45 Гбайт
Продолжительность : 2 ч. 17 м.
Общий поток : 1509 Кбит/сек
Название фильма : Сталинград / Stalingrad (1993) BDRip rip by Rulya74
Программа кодирования : AVI-Mux GUI 1.17.8.3, Feb 16 201019:42:50
Видео
Идентификатор : 0
Формат : MPEG-4 Visual
Профиль формата : Advanced Simple@L5
Параметр BVOP формата : 1
Параметр QPel формата : Нет
Параметр GMC формата : Без точки перехода
Параметр матрицы формата : Выборочная
Режим смешивания : Сжатый битовый поток
Идентификатор кодека : XVID
Идентификатор кодека/Подсказка : XviD
Продолжительность : 2 ч. 17 м.
Битрейт : 1312 Кбит/сек
Ширина : 720 пикселей
Высота : 384 пикселя
Соотношение сторон : 1,85:1
Частота кадров : 23,976 кадра/сек
Цветовое пространство : YUV
Субдискретизация насыщенности : 4:2:0
Битовая глубина : 8 бит
Тип развёртки : Прогрессивная
Метод сжатия : С потерями
Бит/(Пиксели*Кадры) : 0.198
Размер потока : 1,26 Гбайт (87%)
Библиотека кодирования : XviD 65
Аудио
Идентификатор : 1
Формат : AC-3
Формат/Информация : Audio Coding 3
Расширение режима : CM (complete main)
Параметр Endianness формата : Big
Идентификатор кодека : 2000
Продолжительность : 2 ч. 17 м.
Вид битрейта : Постоянный
Битрейт : 192 Кбит/сек
Каналы : 2 канала
Расположение каналов : Front: L R
Частота : 48,0 КГц
Битовая глубина : 16 бит
Метод сжатия : С потерями
Размер потока : 189 Мбайт (13%)
Выравнивание : Соединение по промежуткам
Продолжительность промежутка : 64 мс. (1,53 видеокадра)
Время предзагрузки промежутка : 192 мс.
Заголовок : Профессиональный (двухголосый закадровый)



Скачать Сталинград.Stalingrad.(Йозеф.Вильсмайер.Joseph.Vilsmaier).[1993.г.драма.военный.BDRip].[DVO].+.[вставки.AVO.(Живов)].torrent без регистрации
Золото ЗОЛОТАЯ РАЗДАЧА! СКАЧАННОЕ НЕ ЗАСЧИТЫВАЕТСЯ! Золото
Дата: Зарегистрирован   [ Тип: внутренний ] Как тут cкачать?
MAGNET ссылка
MAGNET ссылка


Скачать .torrent

15 KB

Статус: проверено DHT
Скачан: торрент - 230 раз, раздача полностью - 39 раз
Размер: 1,45 GB
Оценка:  - (Голосов: 0)
Поблагодарили: 1
Поделиться ссылкой на эту раздачу с друзьями:
В контактеFacebookОдноклассникиTwitterLivejournalМой МирLiveinternet
 

 
Показать сообщения:    


Вы не можете начинать темы
Вы не можете отвечать на сообщения
Вы не можете редактировать свои сообщения
Вы не можете удалять свои сообщения
Вы не можете голосовать в опросах
Вы не можете прикреплять файлы к сообщениям
Вы можете скачивать файлы