Loading...
Error

Скачать Пещера / The Cave (Брюс Хант) [2005, фантастика, приключения, ужасы, BDRip-AVC] 2x[MVO]+[DVO]+[AVO (Визгунов)] торрент без регистрации

 
Статистика раздачи
Размер:  2,69 GB   |    Скачан:  141 раз
Сидов:  1  [  0 KB/s  ]  
 
Автор Сообщение

МихаНЕзатор

[] 

Информация о фильме
Название: Пещера
Оригинальное название: The Cave
Год выхода: 2005
Жанр: фантастика, приключения, ужасы
Режиссер: Брюс Хант
В ролях: Коул Хаузер, Эдди Сибриан, Моррис Честнат, Лина Хиди, Пайпер Перабо, Рик Раванелло, Дэниэл Дэ Ким, Киран Дарси-Смит, Марчел Юреш, Влад Радеску


О фильме: В лесных дебрях Румынии группа ученых наталкивается на руины аббатства XIII века. Обследовав их, они совершают удивительное открытие это сооружение было построено над входом в гигантский подземный грот. А по мнению местных биологов, в гроте существует уникальная и еще не познанная экосистема. В итоге они отправляются выведывать ее тайны вместе с американскими спелеологами Джеком, его братом Тайлером и группой лучших в мире ныряльщиков. В их распоряжении самое современное оборудование, с помощью которого можно в течение 24 часов оставаться под водой. Оказавшись в гроте, исследователи, к своему ужасу, находят не новую экосистему, а невиданных доселе существ

Страна: США, Screen Gems, Cinerenta Medienbeteiligungs KG, Lakeshore Entertainment
Продолжительность: 01:37:09
Перевод: Профессиональный многоголосый, профессиональный двухголосый, авторский одноголосый
Дата релиза: 01.02.2013

Файл
Кодек: H.264
Качество: BDRip-AVC
Видео: MPEG-4 AVC, 2564 Кбит/с, 1024x426
Звук:
Аудио 1: Русский (AC3, 6 ch, 448 Кбит/с) - Профессиональный многоголосый
Аудио 2: Русский (AC3, 2 ch, 192 Кбит/с) - Профессиональный многоголосый (СТС)
Аудио 3: Русский (AC3, 2 ch, 192 Кбит/с) - Профессиональный двухголосый
Аудио 4: Русский (AC3, 2 ch, 192 Кбит/с) - Авторский одноголосый (Визгунов)
Аудио 5: Английский (AC3, 6 ch, 384 Кбит/с)



Релиз от: Авторы релиза:
Общее
Уникальный идентификатор : 240180719969166984885293496663814321011 (0xB4B11FC2BE82C0B792ADE0DCD71E3373)
Полное имя : D:1Peshhera.2005.x264.BDRip.(AVC).ExKinoRay.mkv
Формат : Matroska
Версия формата : Version 2
Размер файла : 2,69 Гбайт
Продолжительность : 1 ч. 37 м.
Общий поток : 3963 Кбит/сек
Название фильма : Peshhera.2005.x264.BDRip.(AVC).ExKinoRay
Дата кодирования : UTC 2013-02-01 16:32:21
Программа кодирования : mkvmerge v4.0.0 ('The Stars were mine') сборка от Jun 6 2010 16:18:42
Библиотека кодирования : libebml v1.0.0 + libmatroska v1.0.0

Видео
Идентификатор : 1
Формат : AVC
Формат/Информация : Advanced Video Codec
Профиль формата : High@L4.1
Параметр CABAC формата : Да
Параметр ReFrames формата : 8 кадров
Идентификатор кодека : V_MPEG4/ISO/AVC
Продолжительность : 1 ч. 37 м.
Битрейт : 2564 Кбит/сек
Ширина : 1024 пикселя
Высота : 426 пикселей
Соотношение сторон : 2,40:1
Частота кадров : 23,976 кадра/сек
Цветовое пространство : YUV
Субдискретизация насыщенности : 4:2:0
Битовая глубина : 8 бит
Тип развёртки : Прогрессивная
Бит/(Пиксели*Кадры) : 0.245
Размер потока : 1,68 Гбайт (62%)
Заголовок : Rip by Enigma-Vladislav71
Библиотека кодирования : x264 core 129 r2230 1cffe9f
Настройки программы : cabac=1 / ref=8 / deblock=1:-2:-2 / analyse=0x3:0x133 / me=umh / subme=11 / psy=1 / psy_rd=1.00:0.00 / mixed_ref=1 / me_range=48 / chroma_me=1 / trellis=2 / 8x8dct=1 / cqm=0 / deadzone=21,11 / fast_pskip=0 / chroma_qp_offset=-2 / threads=3 / lookahead_threads=1 / sliced_threads=0 / nr=0 / decimate=0 / interlaced=0 / bluray_compat=0 / constrained_intra=0 / bframes=8 / b_pyramid=2 / b_adapt=2 / b_bias=0 / direct=3 / weightb=1 / open_gop=0 / weightp=2 / keyint=240 / keyint_min=23 / scenecut=40 / intra_refresh=0 / rc_lookahead=40 / rc=2pass / mbtree=1 / bitrate=2564 / ratetol=1.0 / qcomp=0.60 / qpmin=10 / qpmax=51 / qpstep=4 / cplxblur=20.0 / qblur=0.5 / ip_ratio=1.40 / aq=2:1.00
Язык : English

Аудио #1
Идентификатор : 2
Формат : AC-3
Формат/Информация : Audio Coding 3
Расширение режима : CM (complete main)
Идентификатор кодека : A_AC3
Продолжительность : 1 ч. 37 м.
Вид битрейта : Постоянный
Битрейт : 448 Кбит/сек
Каналы : 6 каналов
Расположение каналов : Front: L C R, Side: L R, LFE
Частота : 48,0 КГц
Битовая глубина : 16 бит
Метод сжатия : С потерями
Размер потока : 311 Мбайт (11%)
Заголовок : многоголосый
Язык : Russian

Аудио #2
Идентификатор : 3
Формат : AC-3
Формат/Информация : Audio Coding 3
Расширение режима : CM (complete main)
Идентификатор кодека : A_AC3
Продолжительность : 1 ч. 37 м.
Вид битрейта : Постоянный
Битрейт : 192 Кбит/сек
Каналы : 2 канала
Расположение каналов : Front: L R
Частота : 48,0 КГц
Битовая глубина : 16 бит
Метод сжатия : С потерями
Размер потока : 133 Мбайт (5%)
Заголовок : многоголосый (СТС)
Язык : Russian

Аудио #3
Идентификатор : 4
Формат : AC-3
Формат/Информация : Audio Coding 3
Расширение режима : CM (complete main)
Идентификатор кодека : A_AC3
Продолжительность : 1 ч. 37 м.
Вид битрейта : Постоянный
Битрейт : 192 Кбит/сек
Каналы : 2 канала
Расположение каналов : Front: L R
Частота : 48,0 КГц
Битовая глубина : 16 бит
Метод сжатия : С потерями
Размер потока : 133 Мбайт (5%)
Заголовок : двухголосый
Язык : Russian

Аудио #4
Идентификатор : 5
Формат : AC-3
Формат/Информация : Audio Coding 3
Расширение режима : CM (complete main)
Идентификатор кодека : A_AC3
Продолжительность : 1 ч. 37 м.
Вид битрейта : Постоянный
Битрейт : 192 Кбит/сек
Каналы : 2 канала
Расположение каналов : Front: L R
Частота : 48,0 КГц
Битовая глубина : 16 бит
Метод сжатия : С потерями
Размер потока : 133 Мбайт (5%)
Заголовок : одноголосый (Визгунов)
Язык : Russian

Аудио #5
Идентификатор : 6
Формат : AC-3
Формат/Информация : Audio Coding 3
Расширение режима : CM (complete main)
Идентификатор кодека : A_AC3
Продолжительность : 1 ч. 37 м.
Вид битрейта : Постоянный
Битрейт : 384 Кбит/сек
Каналы : 6 каналов
Расположение каналов : Front: L C R, Side: L R, LFE
Частота : 48,0 КГц
Битовая глубина : 16 бит
Метод сжатия : С потерями
Размер потока : 267 Мбайт (10%)
Заголовок : английский
Язык : English

Меню
00:00:00.000 : en:Chapter 01 / en:Chapter 02
00:06:49.743 : en:Chapter 03
00:10:57.698 : en:Chapter 04
00:16:57.725 : en:Chapter 05
00:23:22.734 : en:Chapter 06
00:30:50.724 : en:Chapter 07
00:37:44.721 : en:Chapter 08
00:42:09.610 : en:Chapter 09
00:49:31.093 : en:Chapter 10
00:55:25.364 : en:Chapter 11
01:00:03.225 : en:Chapter 12
01:07:57.031 : en:Chapter 13
01:14:43.729 : en:Chapter 14
01:19:21.966 : en:Chapter 15
01:26:25.389 : en:Chapter 16
01:29:31.992 : en:Chapter 17



Скачать Пещера.The.Cave.(Брюс.Хант).[2005.фантастика.приключения.ужасы.BDRip-AVC].2x[MVO]+[DVO]+[AVO.(Визгунов)].torrent без регистрации
Золото ЗОЛОТАЯ РАЗДАЧА! СКАЧАННОЕ НЕ ЗАСЧИТЫВАЕТСЯ! Золото
Дата: Зарегистрирован   [ Тип: внутренний ] Как тут cкачать?
MAGNET ссылка
MAGNET ссылка


Скачать .torrent

14 KB

Статус: проверено DHT
Скачан: торрент - 141 раз, раздача полностью - 33 раз
Размер: 2,69 GB
Оценка:  4 (Голосов: 1)
Поблагодарили: 5
Поделиться ссылкой на эту раздачу с друзьями:
В контактеFacebookОдноклассникиTwitterLivejournalМой МирLiveinternet
 

 
Показать сообщения:    


Вы не можете начинать темы
Вы не можете отвечать на сообщения
Вы не можете редактировать свои сообщения
Вы не можете удалять свои сообщения
Вы не можете голосовать в опросах
Вы не можете прикреплять файлы к сообщениям
Вы можете скачивать файлы