Loading...
Error

Скачать Последователи / The Following (Сезон 1-2, Серии 1-30 из 30) [2013-2014, Триллер, драма, криминал, WEBDLRip-AVC 1080р] [DD5.1] [MVO] [NewStudio & LostFilm] торрент без регистрации

 
Статистика раздачи
Размер:  40,39 GB   |    Скачан:  309 раз
Сидов:  1  [  0 KB/s  ]  
 
Автор Сообщение

Nikolai.Baranov

[] 





Последователи / The Following




Год выпуска: 2013-2014
Выпущено: США , Outerbanks Entertainment, Warner Bros. International Television
Жанр: Триллер, драма, криминал
Продолжительность: 00:45:30
Сезон: 1-2
Серии: 1-30
Количество серий в сезоне: 30
Озвучка:1Сезон-Профессиональная многоголосая закадровая(NewStudio & Mekc)Кирилл Туранский, Анна Тух, Елена Шульман, Константин Погодаев, Александр Дасевич,2Сезон-Профессиональная многоголосая закадровая(LostFilm.TV)
Субтитры: 1Сезон-Русские, английские,2Сезон-Английские

Официальный сайт сериала



Режиссер: Маркос Сига, Джошуа Батлер

В ролях: Кевин Бэйкон, Джеймс Пьюрфой, Шон Эшмор, Кайл Кэтлетт, Натали Зиа, Энни Пэррис, Нико Торторелла, Грег Пол, Ли Джан Ли


Главный антигерой - Джо Кэрол, бывший профессор колледжа, который преподавал работы Эдгара По и параллельно убивал молодых женщин во славу романтизма, пока не был пойман. С того момента он провел множество часов за компьютером в тюремной библиотеке, создавая социальную сеть из убийц-подражателей, которые исполняют любую его команду. Сериал начинается с того момента, когда Кэрол спасается от смертной казни с помощью своих последователей, и ФБР, в свою очередь, приглашает Райана Харди, который схватил Джо в первый раз, для консультирования в деле его поимки.


Качество 1 сезона: WEB-DLRip-AVC 1080p[/b]
Качество : WEB-DLRip-AVC 1080p
Формат: MPEG-4
Видео кодек: H264
Видео: 4658Кбит/сек,1920х1080(16.9),в 25.000кадр/сек,AVC(Baseline@L4.2)(1Ref Frames)
Аудио кодек: AAC
Аудио Russian Dolby Digital 5.1:427Кбит/сек,44.1КГц,6каналов,AAC,(Version4)(LC)

Качество 2 сезона: WEB-DLRip-AVC 1080p[/b]
Качество : WEB-DLRip-AVC 1080p
Формат: MPEG-4
Видео кодек: H264
Видео: 5697Кбит/сек,1920х1080(16.9),в 25.000кадр/сек,AVC(Baseline@L4.0)(1Ref Frames)
Аудио кодек: AAC
Аудио Russian Dolby Digital 5.1:456Кбит/сек,44.1КГц,6каналов,AAC,(Version4)(LC)



Звуковая дорожка сделана путем наложения чистого голоса озвучивателей на центральный канал оригинальной дорожки. Качество идентично звуковой дорожке.



1Сезон
01. Пилот / Pilot
02. Часть вторая / Chapter Two
03. Поэтическое Пламя / The Poet's Fire
04. Безумная любовь / Mad Love
05. Осада / The siege
06. Провал / The fall
07. Отпусти меня / Let me go
08. Добро пожаловать Домой! / Welcome Home
09. Любящие сердца / Love Hurts
10. Вина / Guilt
11. Плети и сожаление / Whips & Regret
12. Проклятие / The Curse
13. Хэйвепорт / Havenport
14. Конец близок / The End Is Near
15. Последняя глава / The Final Chapter

2Сезон

01. Воскрешение / Resurrection
02. Для Джо / For Joe
03. Верь мне / Trust Me
04. Семейное дело / Family Affair
05. Отражения / Reflection
06. Улетай / Fly Away
07, Жертва / Sacrifice
08. Предвестник / The Messenger
09. Без масок / Unmasked
10. Любимчик учителя / Teacher's Pet
11. Свобода / Freedom
12. Предательство / Betrayal
13. Жатва / The Reaping
14. Молчание / Silence
15. Прости / Forgive



Общее
Полное имя : F:\Новая папка (3)\Последователи\The_Following_2013_S01_rus[NewStudio_&_Mekc]_DD5.1_x264_Nikolai.Baranov_WEB-DLRip-AVC_(1080p)\The_Following_2013_S01E01_rus[NewStudio_&_Mekc]_DD5.1_x264_Nikolai.Baranov_WEB-DLRip-AVC_(1080p).mp4
Формат : MPEG-4
Профиль формата : Base Media
Идентификатор кодека : isom
Размер файла : 1,62 Гбайт
Продолжительность : 45 м.
Режим общего битрейта : Переменный
Общий поток : 5089 Кбит/сек
Дата кодирования : UTC 2013-01-31 21:03:34
Дата пометки : UTC 2013-01-31 21:03:34
Программа кодирования : Lavf51.12.1

Видео
Идентификатор : 1
Формат : AVC
Формат/Информация : Advanced Video Codec
Профиль формата : Baseline@L4.2
Параметр CABAC формата : Нет
Параметр ReFrames формата : 1 кадр
Параметр GOP формата : M=1, N=12
Идентификатор кодека : avc1
Идентификатор кодека/Информация : Advanced Video Coding
Продолжительность : 45 м.
Вид битрейта : Переменный
Битрейт : 4658 Кбит/сек
Максимальный битрейт : 6750 Кбит/сек
Ширина : 1920 пикселей
Высота : 1080 пикселей
Соотношение сторон : 16:9
Режим частоты кадров : Постоянный
Частота кадров : 25,000 кадров/сек
Частота кадров в оригинале : 24,000 кадра/сек
Цветовое пространство : YUV
Субдискретизация насыщенности : 4:2:0
Битовая глубина : 8 бит
Тип развёртки : Прогрессивная
Бит/(Пиксели*Кадры) : 0.090
Размер потока : 1,48 Гбайт (92%)
Дата кодирования : UTC 2013-01-31 21:03:34
Дата пометки : UTC 2013-01-31 21:03:34

Аудио
Идентификатор : 2
Формат : AAC
Формат/Информация : Advanced Audio Codec
Профиль формата : LC
Идентификатор кодека : 40
Продолжительность : 45 м.
Вид битрейта : Переменный
Битрейт : 427 Кбит/сек
Каналы : 6 каналов
Расположение каналов : Front: L C R, Side: L R, LFE
Частота : 44,1 КГц
Метод сжатия : С потерями
Размер потока : 139 Мбайт (8%)
Дата кодирования : UTC 2013-01-31 21:03:34
Дата пометки : UTC 2013-01-31 21:03:34



General
Полное имя : D:\С Е Р И А Л Ы\Последователи\The_Following_S01-S02_RUS[NewStudio_&_LostFilm]_DD5.1_x264_Nikolai.Baranov_WEB-DLRip-AVC_(1080p)\S02\The_Following_2014_S01E01_rus[LostFilm.TV]_DD5.1_x264_Nikolai.Baranov_WEB-DLRip-AVC_(1080p).mp4
Формат : MPEG-4
Профиль формата : Base Media
Идентификатор кодека : isom
Размер файла : 1.89 GiB
Продолжительность : 43mn 53s
Режим общего битрейта : Variable
Общий поток : 6 158 Kbps
Название фильма : Спираль - 1С…05 - Белая комната
Дата кодирования : UTC 2014-02-12 19:59:36
Дата пометки : UTC 2014-02-12 19:59:36
Программа кодирования : Lavf51.12.1

Video
Идентификатор : 1
Формат : AVC
Формат/Информация : Advanced Video Codec
Профиль формата : Baseline@L4.0
Параметр CABAC формата : No
Параметр ReFrames формата : 1 frame
Параметр GOP формата : M=1, N=12
Идентификатор кодека : avc1
Идентификатор кодека/Информация : Advanced Video Coding
Продолжительность : 43mn 53s
Вид битрейта : Variable
Битрейт : 5 697 Kbps
Максимальный битрейт : 8 250 Kbps
Ширина : 1 920 pixels
Высота : 1 080 pixels
Соотношение сторон : 16:9
Режим частоты кадров : Constant
Частота кадров : 25.000 fps
Частота кадров в оригинале : 24.000 fps
Цветовое пространство : YUV
Субдискретизация насыщенности : 4:2:0
Битовая глубина : 8 bits
Тип развёртки : Progressive
Бит/(Пиксели*Кадры) : 0.110
Размер потока : 1.75 GiB (93%)
Язык : English
Дата кодирования : UTC 2014-02-12 19:59:36
Дата пометки : UTC 2014-02-12 19:59:36

Audio
Идентификатор : 2
Формат : AAC
Формат/Информация : Advanced Audio Codec
Профиль формата : LC
Идентификатор кодека : 40
Продолжительность : 43mn 53s
Вид битрейта : Variable
Битрейт : 456 Kbps
Каналы : 6 channels
Расположение каналов : Front: L C R, Side: L R, LFE
Частота : 48.0 KHz
Метод сжатия : Lossy
Размер потока : 143 MiB (7%)
Язык : Russian
Дата кодирования : UTC 2014-02-12 19:59:36
Дата пометки : UTC 2014-02-12 19:59:36






1 сезон

2 сезон


1. Открыть торрент
2. Снять галки с тех файлов торрента, которые мы не хотим закачивать. Оставляем только на нужных нам файлах (файле).
3. Нажать О.К.

В клиенте utorrent

Инструкция

1) Открыть торрент


2) Снять галки с тех файлов торрента, которые мы не хотим закачивать:

* либо вручную, снимая с каждого файла галку( скрин №1)
* либо, нажав кнопку "Снять метки (Select None)", сняв сразу со всех файлов(скрин №2)
№1

№2

Оставляем только на нужных нам файлах (файле).

3)Нажать О.К




1Внимание!!! 02.05. 2014. РАЗДАЧА ОБНОВЛЕНА.ОБНОВИТЕ ТОРЕНТ ФАЙЛ.ПРИЯТНОГО ПРОСМОТРА .

Релиз от: Nikolai.Baranov








Скачать Последователи.The.Following.(Сезон.1-2.Серии.1-30.из.30).[2013-2014.Триллер.драма.криминал.WEBDLRip-AVC.1080р].[DD5.1].[MVO].[NewStudio.&.LostFilm].torrent без регистрации
Золото ЗОЛОТАЯ РАЗДАЧА! СКАЧАННОЕ НЕ ЗАСЧИТЫВАЕТСЯ! Золото
Дата: Зарегистрирован   [ Тип: внутренний ] Как тут cкачать?
MAGNET ссылка
MAGNET ссылка


Скачать .torrent

109 KB

Статус: проверено DHT
Скачан: торрент - 309 раз, раздача полностью - 2 раз
Размер: 40,39 GB
Оценка:  5 (Голосов: 2)
Поблагодарили: 9
Поделиться ссылкой на эту раздачу с друзьями:
В контактеFacebookОдноклассникиTwitterLivejournalМой МирLiveinternet
 

 
Показать сообщения:    


Вы не можете начинать темы
Вы не можете отвечать на сообщения
Вы не можете редактировать свои сообщения
Вы не можете удалять свои сообщения
Вы не можете голосовать в опросах
Вы не можете прикреплять файлы к сообщениям
Вы можете скачивать файлы