Loading...
Error

Скачать Женское дело / Une affaire de femmes (Клод Шаброль) [1988, драма, DVDRip-AVC] [MVO]+[Sub] торрент без регистрации

 
Статистика раздачи
Размер:  2,55 GB   |    Скачан:  105 раз
Сидов:  1  [  0 KB/s  ]  
 
Автор Сообщение

Marsianka

[] 

Информация о фильме
Название: Женское дело
Оригинальное название: Une affaire de femmes
Год выхода: 1988
Жанр: драма
Режиссер: Клод Шаброль / Claude Chabrol
В ролях: Изабель Юппер / Isabelle Huppert, Франсуа Клюзе / Francois Cluzet, Ниль Тавернье / Nils Tavernier, Мари Трентиньян / Marie Trintignant, Лолита Шамма / Lolita Chammah, Орор Говен / Aurore Gauvin, Гийом Фуртье / Guillaume Foutrier, Николя Фуртье / Nicolas Foutrier, Мари Бюнель / Marie Bunel, Доминик Блан / Dominique Blanc, Луи Дюкро / Louis Ducreux, Мишель Бон / Michel Beaune, Эвелин Диди / Evelyne Didi, Дани / Dani, Франсуа Мэстр / Francois Maistre

О фильме:
Что делать матери двух детей во время оккупации, если раненый муж в плену, работы нет, а семью кормить все же надо? Сначала оказав "женскую услугу" подруге, избавив ее от нежелательной беременности, Мари Латур постепенно превращает подпольные аборты в довольно прибыльное дело, а если еще и сдавать комнаты проституткам, то это тоже станет ощутимым подспорьем. Однако все тайное становится явным, особенно если это не нравится нежданно вернувшемуся супругу... Героиня фильма Мари Латур имела реальный прототип - Мари-Луиза Ферро действительно была приговорена к смертной казни за подпольные аборты и гильотинирована в 1943-м году. Она была последней во Франции казненной женщиной.



Страна: Франция
Студия: MK2 Productions, Films A2, Films du Cam™lia
Продолжительность: 01:47:44
Перевод: Профессиональный (многоголосый, закадровый) НТВ+

Файл
Кодек: h.264
Качество: DVDRip-AVC
Видео: 704x480 (AR 1.723) @ 828x480 (анаморф), 23.976 fps, AVC, ~3002 Kbps, 0.371 bits/pixel
Звук:
1) Французский, 48.0 KHz, AC3, 2 ch, 192 Kbps
2) Русский, 48.0 KHz, AC3, 2 ch, 192 Kbps (все моно)
Субтитры:
1) Английские, VobSub
2) Русские, SRT/UTF-8 (только перевод имен членов команды фильма в самом начале!)
Общее
Уникальный идентификатор : 251645608638418984406648827033317480720 (0xBD512E6A019EE3589BE55F400B271910)
Полное имя : D:FilmsZhenskoe delo.1988.DVDrip-AVC.mkv
Формат : Matroska
Версия формата : Version 4 / Version 2
Размер файла : 2,55 Гбайт
Продолжительность : 1 ч. 47 м.
Общий поток : 3389 Кбит/сек
Дата кодирования : UTC 2013-02-01 15:46:40
Программа кодирования : mkvmerge v6.0.0 ('Coming Up For Air') built on Jan 20 2013 09:52:00
Библиотека кодирования : libebml v1.3.0 + libmatroska v1.4.0

Видео
Идентификатор : 1
Формат : AVC
Формат/Информация : Advanced Video Codec
Профиль формата : High@L4.1
Параметр CABAC формата : Да
Параметр ReFrames формата : 8 кадров
Идентификатор кодека : V_MPEG4/ISO/AVC
Продолжительность : 1 ч. 47 м.
Битрейт : 3002 Кбит/сек
Ширина : 704 пикселя
Высота : 480 пикселей
Соотношение сторон : 1,723
Режим частоты кадров : Постоянный
Частота кадров : 23,976 кадра/сек
Стандарт вещания : NTSC
Цветовое пространство : YUV
Субдискретизация насыщенности : 4:2:0
Битовая глубина : 8 бит
Тип развёртки : Прогрессивная
Бит/(Пиксели*Кадры) : 0.371
Размер потока : 2,21 Гбайт (87%)
Библиотека кодирования : x264 core 129 r2230 1cffe9f
Настройки программы : cabac=1 / ref=8 / deblock=1:0:0 / analyse=0x3:0x133 / me=umh / subme=9 / psy=1 / psy_rd=1.00:0.15 / mixed_ref=1 / me_range=16 / chroma_me=1 / trellis=2 / 8x8dct=1 / cqm=0 / deadzone=21,11 / fast_pskip=1 / chroma_qp_offset=-3 / threads=12 / lookahead_threads=2 / sliced_threads=0 / nr=0 / decimate=1 / interlaced=0 / bluray_compat=0 / constrained_intra=0 / bframes=3 / b_pyramid=2 / b_adapt=2 / b_bias=0 / direct=3 / weightb=1 / open_gop=0 / weightp=2 / keyint=240 / keyint_min=23 / scenecut=40 / intra_refresh=0 / rc_lookahead=60 / rc=2pass / mbtree=1 / bitrate=3002 / ratetol=1.0 / qcomp=0.60 / qpmin=0 / qpmax=69 / qpstep=4 / cplxblur=20.0 / qblur=0.5 / ip_ratio=1.40 / aq=1:1.00
Default : Нет
Forced : Нет

Аудио #1
Идентификатор : 2
Формат : AC-3
Формат/Информация : Audio Coding 3
Профиль формата : Dolby Digital
Расширение режима : CM (complete main)
Параметр Endianness формата : Big
Идентификатор кодека : A_AC3
Продолжительность : 1 ч. 47 м.
Вид битрейта : Постоянный
Битрейт : 192 Кбит/сек
Каналы : 2 канала
Расположение каналов : Front: L R
Частота : 48,0 КГц
Битовая глубина : 16 бит
Метод сжатия : С потерями
Размер потока : 148 Мбайт (6%)
Язык : French
Default : Нет
Forced : Нет

Аудио #2
Идентификатор : 3
Формат : AC-3
Формат/Информация : Audio Coding 3
Расширение режима : CM (complete main)
Параметр Endianness формата : Big
Идентификатор кодека : A_AC3
Продолжительность : 1 ч. 47 м.
Вид битрейта : Постоянный
Битрейт : 192 Кбит/сек
Каналы : 2 канала
Расположение каналов : Front: L R
Частота : 48,0 КГц
Битовая глубина : 16 бит
Метод сжатия : С потерями
Размер потока : 148 Мбайт (6%)
Язык : Russian
Default : Да
Forced : Нет

Текст #1
Идентификатор : 4
Формат : VobSub
Режим смешивания : zlib
Идентификатор кодека : S_VOBSUB
Идентификатор кодека/Информация : The same subtitle format used on DVDs
Язык : English
Default : Нет
Forced : Нет

Текст #2
Идентификатор : 5
Формат : UTF-8
Идентификатор кодека : S_TEXT/UTF8
Идентификатор кодека/Информация : UTF-8 Plain Text
Язык : Russian
Default : Да
Forced : Нет

Меню
00:00:00.000 : en:Chapter 01
00:06:12.067 : en:Chapter 02
00:13:10.334 : en:Chapter 03
00:21:07.334 : en:Chapter 04
00:24:15.268 : en:Chapter 05
00:33:51.902 : en:Chapter 06
00:38:16.336 : en:Chapter 07
00:44:40.170 : en:Chapter 08
00:49:04.404 : en:Chapter 09
00:55:56.005 : en:Chapter 10
00:59:17.138 : en:Chapter 11
01:05:19.605 : en:Chapter 12
01:10:27.473 : en:Chapter 13
01:16:25.107 : en:Chapter 14
01:18:24.407 : en:Chapter 15
01:23:53.074 : en:Chapter 16
01:27:30.274 : en:Chapter 17
01:36:02.075 : en:Chapter 18
01:39:02.509 : en:Chapter 19
01:45:36.709 : en:Chapter 20
01:47:38.009 : en:Chapter 21
Релиз от: Temperest



Скачать Женское.дело.Une.affaire.de.femmes.(Клод.Шаброль).[1988.драма.DVDRip-AVC].[MVO]+[Sub].torrent без регистрации
Золото ЗОЛОТАЯ РАЗДАЧА! СКАЧАННОЕ НЕ ЗАСЧИТЫВАЕТСЯ! Золото
Дата: Зарегистрирован   [ Тип: внутренний ] Как тут cкачать?
MAGNET ссылка
MAGNET ссылка


Скачать .torrent

13 KB

Статус: проверено DHT
Скачан: торрент - 105 раз, раздача полностью - 14 раз
Размер: 2,55 GB
Оценка:  - (Голосов: 0)
Поблагодарили: 0
Поделиться ссылкой на эту раздачу с друзьями:
В контактеFacebookОдноклассникиTwitterLivejournalМой МирLiveinternet
 

 
Показать сообщения:    


Вы не можете начинать темы
Вы не можете отвечать на сообщения
Вы не можете редактировать свои сообщения
Вы не можете удалять свои сообщения
Вы не можете голосовать в опросах
Вы не можете прикреплять файлы к сообщениям
Вы можете скачивать файлы