Loading...
Error

Скачать Алиса или Последний побег / Alice ou la derniere fugue (Клод Шаброль) [1977, драма, детектив, DVDRip-AVC] [VO] торрент без регистрации

 
Статистика раздачи
Размер:  2,18 GB   |    Скачан:  129 раз
Сидов:  1  [  0 KB/s  ]  
 
Автор Сообщение

Marsianka

[] 

Информация о фильме
Название: Алиса или Последний побег
Оригинальное название: Alice ou la derniere fugue
Год выхода: 1977
Жанр: драма, детектив
Режиссер: Клод Шаброль / Claude Chabrol
В ролях: Сильвия Кристель, Шарль Ванель, Андре Дюссолье, Фернан Леду, Тома Шаброль, Бернар Руссле, Франсуа Перро, Жан Карме, Catherine Drusy, Катя Романофф

О фильме:
«Алиса или последний побег» и «Город Зеро» Шаханазарова, существуют в такой же связи, как «Гибель богов» и «Трагедия в стиле Рок». Что в очередной раз доказывает фантастическую просвещенность советских кинематографистов относительно западного кинематографа. Главная героиня Алиса (Сильвия Кристель) уходит от надоевшего мужа и едет в отель через сельскую провинцию. Неожиданно, лобовое стекло машины полностью трескается, как будто по нему в течении часа долбили кувалдой (что очевидно нереально и должно настраивать зрителя на нужный режиссеру лад), и Алиса вынуждена свернуть к близлежащей вилле, на которой ее ждут старый господин (Шарль Ванель) и его слуга(Жан Карме). Они накормили Алису и оставили до утра. А утром, при попытке уехать, Алиса понимает, что сделать это, мягко говоря, невозможно. Дороги с Виллы оканчиваются зеленым «живым» забором (см. Город зеро!). А вилла окружена высокой каменной и полностью глухой оградой по периметру, в которой нет ворот. После, осознания того что сбежать отсюда невозможно, Алиса начинает встречать странных людей, которые просят ее только об одном «Никаких вопросов». На следующие сутки «вилла отпускает» девушку, которая пытается уехать на машине из этого странного места (кстати говоря, лобовое стекло утром было таинственным образом поменяно). Однако, ее путь оканчивается в пригородной закусочной, где местные жителе празднуют «смерть сестры», а в процессе праздника к всеобщей радости становится плохо одному из гостей (Фернан Леду), который начинает умирать у всех на глазах, но никто ему не помогает. Но, у Алисы вновь трескается лобовое стекло, и она оказывается на Вилле, где тот же демируг - хозяин, наконец, открывает ей всю правду о месте, где она оказалась.



Страна: Франция
Студия: Filmel, P.H.P.G.
Продолжительность: 01:29:01
Перевод: Любительский одноголосный (lehachuev)

Файл
Кодек: h.264
Качество: DVDRip-AVC
Видео: 704x464 (1.634) @ 758x464 (анаморф), 25.000 fps, AVC, ~3112 Kbps, 0.381 bits/pixel
Звук:
1) Французский, 48.0 KHz, AC3, 2 ch, 192 Kbps
2) Русский 48.0 KHz, AC3, 2 ch, 192 Kbps
Субтитры:
1) Английские, VobSub
2) Русские (rostislav), VobSub
Общее
Уникальный идентификатор : 206191051901725508607808089444037748221 (0x9B1EF3BDA06E6D969122F6074B38E5FD)
Полное имя : D:FilmsAlisa_ili_posledniy_pobeg.1977.DVDrip-AVC.mkv
Формат : Matroska
Версия формата : Version 4 / Version 2
Размер файла : 2,18 Гбайт
Продолжительность : 1 ч. 29 м.
Общий поток : 3500 Кбит/сек
Дата кодирования : UTC 2013-01-31 20:34:09
Программа кодирования : mkvmerge v6.0.0 ('Coming Up For Air') built on Jan 20 2013 09:52:00
Библиотека кодирования : libebml v1.3.0 + libmatroska v1.4.0

Видео
Идентификатор : 1
Формат : AVC
Формат/Информация : Advanced Video Codec
Профиль формата : High@L4.1
Параметр CABAC формата : Да
Параметр ReFrames формата : 8 кадров
Идентификатор кодека : V_MPEG4/ISO/AVC
Продолжительность : 1 ч. 29 м.
Битрейт : 3112 Кбит/сек
Ширина : 704 пикселя
Высота : 464 пикселя
Соотношение сторон : 1,634
Соотношение сторон в оригинале : 1,635
Режим частоты кадров : Постоянный
Частота кадров : 25,000 кадров/сек
Цветовое пространство : YUV
Субдискретизация насыщенности : 4:2:0
Битовая глубина : 8 бит
Тип развёртки : Прогрессивная
Бит/(Пиксели*Кадры) : 0.381
Размер потока : 1,89 Гбайт (87%)
Библиотека кодирования : x264 core 129 r2230 1cffe9f
Настройки программы : cabac=1 / ref=8 / deblock=1:0:0 / analyse=0x3:0x133 / me=umh / subme=9 / psy=1 / psy_rd=1.00:0.15 / mixed_ref=1 / me_range=16 / chroma_me=1 / trellis=2 / 8x8dct=1 / cqm=0 / deadzone=21,11 / fast_pskip=1 / chroma_qp_offset=-3 / threads=12 / lookahead_threads=2 / sliced_threads=0 / nr=0 / decimate=1 / interlaced=0 / bluray_compat=0 / constrained_intra=0 / bframes=3 / b_pyramid=2 / b_adapt=2 / b_bias=0 / direct=3 / weightb=1 / open_gop=0 / weightp=2 / keyint=250 / keyint_min=25 / scenecut=40 / intra_refresh=0 / rc_lookahead=60 / rc=2pass / mbtree=1 / bitrate=3112 / ratetol=1.0 / qcomp=0.60 / qpmin=0 / qpmax=69 / qpstep=4 / cplxblur=20.0 / qblur=0.5 / ip_ratio=1.40 / aq=1:1.00
Default : Нет
Forced : Нет

Аудио #1
Идентификатор : 2
Формат : AC-3
Формат/Информация : Audio Coding 3
Расширение режима : CM (complete main)
Параметр Endianness формата : Big
Идентификатор кодека : A_AC3
Продолжительность : 1 ч. 29 м.
Вид битрейта : Постоянный
Битрейт : 192 Кбит/сек
Каналы : 2 канала
Расположение каналов : Front: L R
Частота : 48,0 КГц
Битовая глубина : 16 бит
Метод сжатия : С потерями
Размер потока : 122 Мбайт (5%)
Язык : French
Default : Нет
Forced : Нет

Аудио #2
Идентификатор : 3
Формат : AC-3
Формат/Информация : Audio Coding 3
Расширение режима : CM (complete main)
Параметр Endianness формата : Big
Идентификатор кодека : A_AC3
Продолжительность : 1 ч. 29 м.
Вид битрейта : Постоянный
Битрейт : 192 Кбит/сек
Каналы : 2 канала
Расположение каналов : Front: L R
Частота : 48,0 КГц
Битовая глубина : 16 бит
Метод сжатия : С потерями
Размер потока : 122 Мбайт (5%)
Язык : Russian
Default : Да
Forced : Нет

Текст #1
Идентификатор : 4
Формат : VobSub
Режим смешивания : zlib
Идентификатор кодека : S_VOBSUB
Идентификатор кодека/Информация : The same subtitle format used on DVDs
Язык : English
Default : Нет
Forced : Нет

Текст #2
Идентификатор : 5
Формат : VobSub
Режим смешивания : zlib
Идентификатор кодека : S_VOBSUB
Идентификатор кодека/Информация : The same subtitle format used on DVDs
Язык : Russian
Default : Нет
Forced : Нет

Меню
00:00:00.000 : en:Chapter 01
00:07:10.000 : en:Chapter 02
00:13:22.960 : en:Chapter 03
00:18:35.920 : en:Chapter 04
00:22:59.920 : en:Chapter 05
00:27:59.920 : en:Chapter 06
00:31:49.840 : en:Chapter 07
00:36:36.880 : en:Chapter 08
00:41:09.040 : en:Chapter 09
00:49:54.160 : en:Chapter 10
00:53:32.080 : en:Chapter 11
00:59:41.200 : en:Chapter 12
01:05:32.080 : en:Chapter 13
01:11:27.760 : en:Chapter 14
01:17:48.880 : en:Chapter 15
01:23:49.840 : en:Chapter 16
01:29:00.880 : en:Chapter 17
Релиз от: Temperest



Скачать Алиса.или.Последний.побег.Alice.ou.la.derniere.fugue.(Клод.Шаброль).[1977.драма.детектив.DVDRip-AVC].[VO].torrent без регистрации
Золото ЗОЛОТАЯ РАЗДАЧА! СКАЧАННОЕ НЕ ЗАСЧИТЫВАЕТСЯ! Золото
Дата: Зарегистрирован   [ Тип: внутренний ] Как тут cкачать?
MAGNET ссылка
MAGNET ссылка


Скачать .torrent

11 KB

Статус: проверено DHT
Скачан: торрент - 129 раз, раздача полностью - 5 раз
Размер: 2,18 GB
Оценка:  5 (Голосов: 1)
Поблагодарили: 3
Поделиться ссылкой на эту раздачу с друзьями:
В контактеFacebookОдноклассникиTwitterLivejournalМой МирLiveinternet
 

 
Показать сообщения:    


Вы не можете начинать темы
Вы не можете отвечать на сообщения
Вы не можете редактировать свои сообщения
Вы не можете удалять свои сообщения
Вы не можете голосовать в опросах
Вы не можете прикреплять файлы к сообщениям
Вы можете скачивать файлы