Loading...
Error

Скачать Глаза змеи / Snake Eyes (Брайан Де Пальма / Brian De Palma) [1998, Триллер, Криминал, Детектив, HDTVRip] [DUB] + [MVO] (ОРТ) + [AVO] (Живов) + [Original eng] + Sub rus,eng торрент без регистрации

 
Статистика раздачи
Размер:  2,19 GB   |    Скачан:  143 раза
Сидов:  1  [  0 KB/s  ]  
 
Автор Сообщение

leon030982

[] 


Глаза змеи / Snake Eyes
«Пристально следят за своей жертвой»



Страна: США
Жанр: Триллер, Криминал, Детектив
Год выпуска: 1998
Продолжительность: 01:34:16

Перевод #1: Профессиональный (дублированный) Видеосервис
Перевод #2: Профессиональный (многоголосый закадровый) ОРТ
Перевод #3: Авторский (одноголосый закадровый) Живов
Оригинальная аудиодорожка: Английский
Cубтитры: Русские (отдельно), Английские (отдельно)

Режиссер: Брайан Де Пальма / Brian De Palma


В ролях: Николас Кейдж, Гэри Синиз, Джон Хёрд, Карла Гуджино, Стэн Шоу, Кевин Данн, Майкл Рисполи, Джоэл Фабиани, Луис Гузман, Дэвид Энтони Хиггинс и др.

Описание: Начиная с первых сенсационных выстрелов и заканчивая неожиданным финалом, фильм полон загадок и тревожного ожидания. Кейдж играет роль Рика Санторо, эксцентричного детектива полиции Атлантик-Сити, который приходит посмотреть на своего спортивного кумира и заодно поправить свои финансовые дела на тотализаторе.
Внезапная стрельба во время поединка превращает 14 тысяч болельщиков в свидетелей политического убийства. Показания свидетелей, видеозаписи электронной системы наблюдения за казино и информация, полученная от таинственной незнакомки в белом, — все это вместе рисует перед видавшим виды Санторо настолько невероятную картину убийства, что он просто отказывается в нее верить.


Качество видео: HDTVRip - Rip by AngelOfTrue
Формат видео: AVI
Видео: Xvid, 720x400, 25.00fps, 1884Kbps
Аудио #1: Russian, AC3, 6ch, 48kHz, 448Kbps | Dub (Видеосервис)
Аудио #2: Russian, AC3, stereo, 48kHz, 192Kbps | MVO (ОРТ)
Аудио #2: Russian, AC3, 6ch, 48kHz, 384Kbps | AVO (Живов)
Аудио #3: English, AC3, 6ch, 48kHz, 384Kbps | Original
Формат субтитров: softsub (SRT)


Format : AVI
Format/Info : Audio Video Interleave
Format profile : OpenDML
File size : 2.19 GiB
Duration : 1h 34mn
Overall bit rate : 3 323 Kbps
Writing application : VirtualDubMod 1.5.10.3 | www.virtualdub-fr.org || (build 2550/release)
Writing library : VirtualDubMod build 2550/release
Video
ID : 0
Format : MPEG-4 Visual
Format profile : Advanced Simple@L5
Format settings, BVOP : 2
Format settings, QPel : No
Format settings, GMC : No warppoints
Format settings, Matrix : Custom
Codec ID : XVID
Codec ID/Hint : XviD
Duration : 1h 34mn
Bit rate : 1 884 Kbps
Width : 720 pixels
Height : 400 pixels
Display aspect ratio : 16:9
Frame rate : 25.000 fps
Color space : YUV
Chroma subsampling : 4:2:0
Bit depth : 8 bits
Scan type : Progressive
Compression mode : Lossy
Bits/(Pixel*Frame) : 0.262
Stream size : 1.24 GiB (57%)
Writing library : XviD 1.2.1 (UTC 2008-12-04)
Audio #1
ID : 1
Format : AC-3
Format/Info : Audio Coding 3
Mode extension : CM (complete main)
Codec ID : 2000
Duration : 1h 34mn
Bit rate mode : Constant
Bit rate : 448 Kbps
Channel(s) : 6 channels
Channel positions : Front: L C R, Side: L R, LFE
Sampling rate : 48.0 KHz
Bit depth : 16 bits
Compression mode : Lossy
Stream size : 302 MiB (13%)
Alignment : Split accross interleaves
Interleave, duration : 40 ms (1.00 video frame)
Interleave, preload duration : 500 ms
Audio #2
ID : 2
Format : AC-3
Format/Info : Audio Coding 3
Mode extension : CM (complete main)
Codec ID : 2000
Duration : 1h 34mn
Bit rate mode : Constant
Bit rate : 192 Kbps
Channel(s) : 2 channels
Channel positions : Front: L R
Sampling rate : 48.0 KHz
Bit depth : 16 bits
Compression mode : Lossy
Stream size : 129 MiB (6%)
Alignment : Split accross interleaves
Interleave, duration : 40 ms (1.00 video frame)
Interleave, preload duration : 500 ms
Audio #3
ID : 3
Format : AC-3
Format/Info : Audio Coding 3
Mode extension : CM (complete main)
Codec ID : 2000
Duration : 1h 34mn
Bit rate mode : Constant
Bit rate : 384 Kbps
Channel(s) : 6 channels
Channel positions : Front: L C R, Side: L R, LFE
Sampling rate : 48.0 KHz
Bit depth : 16 bits
Compression mode : Lossy
Stream size : 259 MiB (12%)
Alignment : Split accross interleaves
Interleave, duration : 40 ms (1.00 video frame)
Interleave, preload duration : 500 ms
Audio #4
ID : 4
Format : AC-3
Format/Info : Audio Coding 3
Mode extension : CM (complete main)
Codec ID : 2000
Duration : 1h 34mn
Bit rate mode : Constant
Bit rate : 384 Kbps
Channel(s) : 6 channels
Channel positions : Front: L C R, Side: L R, LFE
Sampling rate : 48.0 KHz
Bit depth : 16 bits
Compression mode : Lossy
Stream size : 259 MiB (12%)
Alignment : Split accross interleaves
Interleave, duration : 40 ms (1.00 video frame)
Interleave, preload duration : 500 ms

Приятного вам просмотра!



Скачать Глаза.змеи.Snake.Eyes.(Брайан.Де.Пальма.Brian.De.Palma).[1998.Триллер.Криминал.Детектив.HDTVRip].[DUB].+.[MVO].(ОРТ).+.[AVO].(Живов).+.[Original.eng].+.Sub.rus.eng.torrent без регистрации
Золото ЗОЛОТАЯ РАЗДАЧА! СКАЧАННОЕ НЕ ЗАСЧИТЫВАЕТСЯ! Золото
Дата: Зарегистрирован   [ Тип: внутренний ] Как тут cкачать?
MAGNET ссылка
MAGNET ссылка


Скачать .torrent

12 KB

Статус: проверено DHT
Скачан: торрент - 143 раз, раздача полностью - 13 раз
Размер: 2,19 GB
Оценка:  - (Голосов: 0)
Поблагодарили: 3
Поделиться ссылкой на эту раздачу с друзьями:
В контактеFacebookОдноклассникиTwitterLivejournalМой МирLiveinternet
 

 
Показать сообщения:    


Вы не можете начинать темы
Вы не можете отвечать на сообщения
Вы не можете редактировать свои сообщения
Вы не можете удалять свои сообщения
Вы не можете голосовать в опросах
Вы не можете прикреплять файлы к сообщениям
Вы можете скачивать файлы