Loading...
Error

Скачать Сахара / Sahara (Брайан Тренчард-Смит) [1995, боевик, военный, DVDRip] [MVO] торрент без регистрации

 
Статистика раздачи
Размер:  1,46 GB   |    Скачан:  131 раз

Полного источника не было: 24 минуты

 
Автор Сообщение

Marsianka

[] 



Информация о фильме
Название: Сахара
Оригинальное название: Sahara
Год выхода: 1995
Жанр: боевик, военный
Режиссер: Брайан Тренчард-Смит / Brian Trenchard-Smith
В ролях: Джеймс Белуши /James Belushi, Элан Дэвид Ли, Саймон Уэстэуэй /Simon Westaway, Марк Ли /Mark Lee, Майкл Мэсси /Michael Massee, Роберт Уиздом /Robert Wisdom, Анджело Д'Анджело, Пол Эмпсон...

О фильме:
Северная Африка, 1942 год. После боев с армией немецкого генерала Роммеля от танкового батальона, в котором воюет Белуши, осталась только его любимая машина по имени Бель Лу. Отступать можно только на юг, так как остальные стороны света перекрыты противником. Захватив остатки, среди которых помимо американцев, француз, австралиец, медик-англичанин, чернокожий суданец британской армии, да пленный итальянец, сержант Белуши ведет танк в раскаленные пески Сахары в поисках воды. Они находят полупересохший колодец, к которому по их следу идет отряд в 500 немцев, изнемогающих от жажды. Вскоре вода кончается. Но фляги наполнены, и можно уходить, оставив немцам пересохший колодец. Но Белуши решает принять бой, который может позволить перегруппироваться войскам союзников. Немцы, думая, что вода в колодце есть, отчаянно атакуют снова и снова. Редко попадаются такие захватывающие и лихие военные картины.



Страна: США, Австралия
Продолжительность: 1:45:54
Перевод: Профессиональный (многоголосый закадровый) HTB+

Файл
Кодек: Xvid
Качество: DVDRip
Видео: 704x528, 23.976 fps, 1771 Kbps
Звук: AC3, 2 ch, 192.00 kbps, 48.0 khz
General
Complete name : SAHARA.1995.DVDRip.avi
Format : AVI
Format/Info : Audio Video Interleave
File size : 1.46 GiB
Duration : 1h 46mn
Overall bit rate : 1 972 Kbps
Writing application : VirtualDubMod 1.5.10.3 | www.virtualdub-fr.org || (build 2550/release)
Writing library : VirtualDubMod build 2550/release

Video
ID : 0
Format : MPEG-4 Visual
Format profile : Advanced Simple@L5
Format settings, BVOP : 1
Format settings, QPel : No
Format settings, GMC : No warppoints
Format settings, Matrix : Custom
Codec ID : XVID
Codec ID/Hint : XviD
Duration : 1h 46mn
Bit rate : 1 771 Kbps
Width : 704 pixels
Height : 528 pixels
Display aspect ratio : 4:3
Frame rate : 23.976 fps
Color space : YUV
Chroma subsampling : 4:2:0
Bit depth : 8 bits
Scan type : Progressive
Compression mode : Lossy
Bits/(Pixel*Frame) : 0.199
Stream size : 1.31 GiB (90%)
Writing library : XviD 73

Audio
ID : 1
Format : AC-3
Format/Info : Audio Coding 3
Mode extension : CM (complete main)
Format settings, Endianness : Big
Codec ID : 2000
Duration : 1h 46mn
Bit rate mode : Constant
Bit rate : 192 Kbps
Channel(s) : 2 channels
Channel positions : Front: L R
Sampling rate : 48.0 KHz
Bit depth : 16 bits
Compression mode : Lossy
Stream size : 146 MiB (10%)
Alignment : Split accross interleaves
Interleave, duration : 42 ms (1.00 video frame)
Interleave, preload duration : 500 ms
Релиз от: Leon-masl



Скачать Сахара.Sahara.(Брайан.Тренчард-Смит).[1995.боевик.военный.DVDRip].[MVO].torrent без регистрации
Золото ЗОЛОТАЯ РАЗДАЧА! СКАЧАННОЕ НЕ ЗАСЧИТЫВАЕТСЯ! Золото
Дата: Зарегистрирован   [ Тип: внутренний ] Как тут cкачать?
MAGNET ссылка
MAGNET ссылка


Скачать .torrent

15 KB

Статус: проверено DHT
Скачан: торрент - 131 раз, раздача полностью - 23 раз
Размер: 1,46 GB
Оценка:  - (Голосов: 0)
Поблагодарили: 0
Поделиться ссылкой на эту раздачу с друзьями:
В контактеFacebookОдноклассникиTwitterLivejournalМой МирLiveinternet
 

 
Показать сообщения:    


Вы не можете начинать темы
Вы не можете отвечать на сообщения
Вы не можете редактировать свои сообщения
Вы не можете удалять свои сообщения
Вы не можете голосовать в опросах
Вы не можете прикреплять файлы к сообщениям
Вы можете скачивать файлы