Loading...
Error

Скачать Яркое движение / Luminous Motion (Бетт Гордон / Bette Gordon) [1998, драма, DVDRip] [AVO] (Юрий Сербин) + [Original Eng] торрент без регистрации

 
Статистика раздачи
Размер:  1,53 GB   |    Скачан:  119 раз

Полного источника не было: 26 минут

 
Автор Сообщение

leon030982

[] 

Яркое движение / Luminous Motion


Год выпуска: 1998
Страна: США
Жанр: драма
Продолжительность: 01:34:36
Перевод: Авторский (одноголосый закадровый) [Юрий Сербин]
Cубтитры: нет
Оригинальная аудиодорожка: английский

Режиссер: Бетт Гордон / Bette Gordon

В ролях: Эрик Ллойд / Eric Lloyd, Дебора Кара Ангер / Deborah Kara Unger, Терри Кинни / Terry Kinney, Джейми Шеридан / Jamey Sheridan, Патрик Фицджералд / Patrick Fitzgerald, Конн Хорган / Conn Horgan, Мартин Элвин / Martin Alvin, П.Дж. Браун / P.J. Brown, Брюс МакВитти / Bruce MacVittie

Описание: Десятилетний Филипп пребывает в постоянном движении, колеся по калифорнийским дорогам вместе со своей беззаботной и весьма привлекательной мамашой. А та проворачивет различные трюки и мошенничества с мужчинами, которых соблазнила. Каждую ночь - дорога, каждый мужчина - карта... Но однажды она решила остановиться и зажить обычной жизнью и Филипп видит себя в роли спасителя...

http://www.imdb.com/title/tt0166695/
Сэмпл: http://multi-up.com/823664
Качество видео: DVDRip
Формат видео: AVI
Видео: DivX 5, 720х400 (16:9), 25.000 fps, 1922 Kbps, 0.267 bits/pixel
Аудио 1: AC3, 44100 Hz, 2 ch, 192 kbps (русский)
Аудио 2: AC3, 48000 Hz, 2 ch, 192 kbps (английский)
General
Complete name : F:\Автор 2\Яркое движение\Luminous Motion.avi
Format : AVI
Format/Info : Audio Video Interleave
File size : 1.53 GiB
Duration : 1h 34mn
Overall bit rate : 2 321 Kbps
Writing application : VirtualDubMod 1.5.10.2 (build 2540/release)
Writing library : VirtualDubMod build 2540/release
Video
ID : 0
Format : MPEG-4 Visual
Format profile : Advanced Simple@L5
Format settings, BVOP : 2
Format settings, QPel : No
Format settings, GMC : No warppoints
Format settings, Matrix : Default (MPEG)
Codec ID : DX50
Codec ID/Hint : DivX 5
Duration : 1h 34mn
Bit rate : 1 922 Kbps
Width : 720 pixels
Height : 400 pixels
Display aspect ratio : 16:9
Frame rate : 25.000 fps
Color space : YUV
Chroma subsampling : 4:2:0
Bit depth : 8 bits
Scan type : Progressive
Compression mode : Lossy
Bits/(Pixel*Frame) : 0.267
Stream size : 1.27 GiB (83%)
Writing library : XviD 1.2.1 (UTC 2008-12-04)
Audio #1
ID : 1
Format : AC-3
Format/Info : Audio Coding 3
Mode extension : CM (complete main)
Codec ID : 2000
Duration : 1h 34mn
Bit rate mode : Constant
Bit rate : 192 Kbps
Channel(s) : 2 channels
Channel positions : Front: L R
Sampling rate : 44.1 KHz
Bit depth : 16 bits
Compression mode : Lossy
Stream size : 130 MiB (8%)
Alignment : Split accross interleaves
Interleave, duration : 40 ms (1.00 video frame)
Interleave, preload duration : 500 ms
Audio #2
ID : 2
Format : AC-3
Format/Info : Audio Coding 3
Mode extension : CM (complete main)
Codec ID : 2000
Duration : 1h 34mn
Bit rate mode : Constant
Bit rate : 192 Kbps
Channel(s) : 2 channels
Channel positions : Front: L R
Sampling rate : 48.0 KHz
Bit depth : 16 bits
Compression mode : Lossy
Stream size : 130 MiB (8%)
Alignment : Split accross interleaves
Interleave, duration : 40 ms (1.00 video frame)
Interleave, preload duration : 500 ms



Скачать Яркое.движение.Luminous.Motion.(Бетт.Гордон.Bette.Gordon).[1998.драма.DVDRip].[AVO].(Юрий.Сербин).+.[Original.Eng].torrent без регистрации
Золото ЗОЛОТАЯ РАЗДАЧА! СКАЧАННОЕ НЕ ЗАСЧИТЫВАЕТСЯ! Золото
Дата: Зарегистрирован   [ Тип: внутренний ] Как тут cкачать?
MAGNET ссылка
MAGNET ссылка


Скачать .torrent

16 KB

Статус: проверено DHT
Скачан: торрент - 119 раз, раздача полностью - 7 раз
Размер: 1,53 GB
Оценка:  - (Голосов: 0)
Поблагодарили: 1
Поделиться ссылкой на эту раздачу с друзьями:
В контактеFacebookОдноклассникиTwitterLivejournalМой МирLiveinternet
 

 
Показать сообщения:    


Вы не можете начинать темы
Вы не можете отвечать на сообщения
Вы не можете редактировать свои сообщения
Вы не можете удалять свои сообщения
Вы не можете голосовать в опросах
Вы не можете прикреплять файлы к сообщениям
Вы можете скачивать файлы