Loading...
Error

Скачать Аббатство Даунтон / Downton Abbey (сезон 03) (Брайан Персивал, Энди Годдар, Брайан Келли) [2012, драма, HDRip] [MVO]+[Orig. Eng] торрент без регистрации

 
Статистика раздачи
Размер:  6,18 GB   |    Скачан:  208 раз
Сидов:  1  [  0 KB/s  ]  
 
Автор Сообщение

МихаНЕзатор

[] 

Информация о фильме
Название: Аббатство Даунтон
Оригинальное название: Downton Abbey
Год выхода: 2012
Жанр: драма
Режиссер: Брайан Персивал, Энди Годдар, Брайан Келли
В ролях: Мишель Докери, Дэн Стивенс, Хью Бонневилль, Элизабет МакГоверн, Мэгги Смит, Брендан Койл, Джоэнн Фрогэтт, Лаура Кармайкл, Джессика Браун-Финдли, Роб Джеймс-Колльер

О фильме:
1912 год. Англия. Наследник титула графа Грэнтэма, живущего с семьей в своем родовом имении Даунтон, погибает на «Титанике». Семья ожидает, что теперь, когда наследников мужского пола не осталось, владения и капитал семьи после смерти графа перейдут к его старшей дочери. Но граф, отдавший всю свою жизнь своему поместью, отказывается отстаивать права юной Мэри, считая, что все, включая немалый капитал его жены, должно отойти к наследнику его графского титула, безвестному дальнему родственнику

Страна: Великобритания
Студия: Carnival Films
Продолжительность: ~ 50 минут серия
Перевод: Профессиональный (многоголосый, закадровый) [Русский дубляж] / Оригинал (английский)

Файл
Кодек: XviD / AC3
Качество: HDRip
Видео: 720x400 (16:9), 25.000 fps, ~1300 kbps, ~0.180 bit/pixel
Звук:
Аудио Rus: 48 kHz, 2 ch, ~192 kbps |Русский дубляж|
Аудио Eng: 48 kHz, 2 ch, ~192 kbps |Orginal|

Общее
Формат : AVI
Формат/Информация : Audio Video Interleave
Размер файла : 801 Мбайт
Продолжительность : 1 ч. 6 м.
Общий поток : 1694 Кбит/сек
Программа кодирования : VirtualDubMod 1.5.10.2 (build 2540/release)
Библиотека кодирования : VirtualDubMod build 2540/release

Видео
Идентификатор : 0
Формат : MPEG-4 Visual
Профиль формата : Advanced Simple@L5
Параметр BVOP формата : 1
Параметр QPel формата : Нет
Параметр GMC формата : Без точки перехода
Параметр матрицы формата : Выборочная
Идентификатор кодека : XVID
Идентификатор кодека/Подсказка : XviD
Продолжительность : 1 ч. 6 м.
Битрейт : 1295 Кбит/сек
Ширина : 720 пикселей
Высота : 400 пикселей
Соотношение сторон : 16:9
Частота кадров : 25,000 кадров/сек
Цветовое пространство : YUV
Субдискретизация насыщенности : 4:2:0
Битовая глубина : 8 бит
Тип развёртки : Прогрессивная
Метод сжатия : С потерями
Бит/(Пиксели*Кадры) : 0.180
Размер потока : 612 Мбайт (76%)
Библиотека кодирования : XviD 73

Аудио #1
Идентификатор : 1
Формат : AC-3
Формат/Информация : Audio Coding 3
Расширение режима : CM (complete main)
Параметр Endianness формата : Big
Идентификатор кодека : 2000
Продолжительность : 1 ч. 6 м.
Вид битрейта : Постоянный
Битрейт : 192 Кбит/сек
Каналы : 2 канала
Расположение каналов : Front: L R
Частота : 48,0 КГц
Битовая глубина : 16 бит
Метод сжатия : С потерями
Размер потока : 90,8 Мбайт (11%)
Выравнивание : Разделение по промежуткам
Продолжительность промежутка : 40 мс. (1,00 видеокадр)
Время предзагрузки промежутка : 500 мс.

Аудио #2
Идентификатор : 2
Формат : AC-3
Формат/Информация : Audio Coding 3
Расширение режима : CM (complete main)
Параметр Endianness формата : Big
Идентификатор кодека : 2000
Продолжительность : 1 ч. 6 м.
Вид битрейта : Постоянный
Битрейт : 192 Кбит/сек
Каналы : 2 канала
Расположение каналов : Front: L R
Частота : 48,0 КГц
Битовая глубина : 16 бит
Метод сжатия : С потерями
Размер потока : 90,8 Мбайт (11%)
Выравнивание : Разделение по промежуткам
Продолжительность промежутка : 40 мс. (1,00 видеокадр)
Время предзагрузки промежутка : 500 мс.



Скачать Аббатство.Даунтон.Downton.Abbey.(сезон.03).(Брайан.Персивал.Энди.Годдар.Брайан.Келли).[2012.драма.HDRip].[MVO]+[Orig.Eng].torrent без регистрации
Золото ЗОЛОТАЯ РАЗДАЧА! СКАЧАННОЕ НЕ ЗАСЧИТЫВАЕТСЯ! Золото
Дата: Зарегистрирован   [ Тип: внутренний ] Как тут cкачать?
MAGNET ссылка
MAGNET ссылка


Скачать .torrent

32 KB

Статус: проверено DHT
Скачан: торрент - 208 раз, раздача полностью - 199 раз
Размер: 6,18 GB
Оценка:  - (Голосов: 0)
Поблагодарили: 0
Поделиться ссылкой на эту раздачу с друзьями:
В контактеFacebookОдноклассникиTwitterLivejournalМой МирLiveinternet
 

 
Показать сообщения:    


Вы не можете начинать темы
Вы не можете отвечать на сообщения
Вы не можете редактировать свои сообщения
Вы не можете удалять свои сообщения
Вы не можете голосовать в опросах
Вы не можете прикреплять файлы к сообщениям
Вы можете скачивать файлы