Loading...
Error

Скачать Крутой полицейский / Один крутой полицейский / One Tough Cop (Бруно Баррето / Bruno Barreto) [1998, боевик, криминал, DVDRip] [AVO] (Ю. Сербин) торрент без регистрации

 
Статистика раздачи
Размер:  1,46 GB   |    Скачан:  109 раз
Сидов:  1  [  0 KB/s  ]  
 
Автор Сообщение

leon030982

[] 

Крутой полицейский / Один крутой полицейский
One Tough Cop


Год выпуска: 1998
Страна: США
Жанр: боевик, криминал
Продолжительность: 01:26:26
Перевод: Авторский (одноголосый закадровый) [Ю. Сербин]
Cубтитры: нет

Режиссер: Бруно Баррето / Bruno Barreto
В ролях: Стивен Болдуин, Крис Пенн, Джина Гершон, Майк МакГлоун, Луис Гузман, Харви Эткин, Пол Гилфойл, Виктор Слезак, Эми Ирвинг, Фрэнк Пеллегрино
Описание: По книге Бо Дитла и Кена Гросса «Крутой полицейский». Бо Дитл вырос в бандитском районе, но стал полицейским. Его друг Риччи стал главой мафиозной группировки, но они остаются друзьями, не задают ненужных вопросов и частенько встречаются в баре Джои О`Хара, которая состоит в любовницах женатого и имеющего детей Риччи уже 4 года.
Качество видео: DVDRip
Формат видео: AVI
Видео: 640x480 (4:3), 25.000 fps, XviD build 65 ~2 218 Kbps, 0.29 bit/pixel
Аудио: 48 kHz, AC3 Dolby Digital, 2 ch (L,R) ~192.00 kbps avg
Звуковая дорожка оцифрована с кассеты
Большое спасибо Fikaloid
General
Format : AVI
Format/Info : Audio Video Interleave
File size : 1.46 GiB
Duration : 1h 26mn
Overall bit rate : 2 420 Kbps
Writing application : VirtualDubMod 1.5.10.2 (build 2540/release)
Writing library : VirtualDubMod build 2540/release
Video
ID : 0
Format : MPEG-4 Visual
Format profile : Advanced Simple@L5
Format settings, BVOP : 2
Format settings, QPel : No
Format settings, GMC : No warppoints
Format settings, Matrix : Default (MPEG)
Codec ID : XVID
Codec ID/Hint : XviD
Duration : 1h 26mn
Bit rate : 2 218 Kbps
Width : 640 pixels
Height : 480 pixels
Display aspect ratio : 4:3
Frame rate : 25.000 fps
Color space : YUV
Chroma subsampling : 4:2:0
Bit depth : 8 bits
Scan type : Progressive
Compression mode : Lossy
Bits/(Pixel*Frame) : 0.289
Stream size : 1.34 GiB (92%)
Writing library : XviD 65
Audio
ID : 1
Format : AC-3
Format/Info : Audio Coding 3
Format profile : Dolby Digital
Mode extension : CM (complete main)
Format settings, Endianness : Big
Codec ID : 2000
Duration : 1h 26mn
Bit rate mode : Constant
Bit rate : 192 Kbps
Channel(s) : 2 channels
Channel positions : Front: L R
Sampling rate : 48.0 KHz
Bit depth : 16 bits
Compression mode : Lossy
Stream size : 119 MiB (8%)
Alignment : Split accross interleaves
Interleave, duration : 40 ms (1.00 video frame)
Interleave, preload duration : 500 ms



Скачать Крутой.полицейский.Один.крутой.полицейский.One.Tough.Cop.(Бруно.Баррето.Bruno.Barreto).[1998.боевик.криминал.DVDRip].[AVO].(Ю.Сербин).torrent без регистрации
Золото ЗОЛОТАЯ РАЗДАЧА! СКАЧАННОЕ НЕ ЗАСЧИТЫВАЕТСЯ! Золото
Дата: Зарегистрирован   [ Тип: внутренний ] Как тут cкачать?
MAGNET ссылка
MAGNET ссылка


Скачать .torrent

15 KB

Статус: проверено DHT
Скачан: торрент - 109 раз, раздача полностью - 2 раз
Размер: 1,46 GB
Оценка:  - (Голосов: 0)
Поблагодарили: 0
Поделиться ссылкой на эту раздачу с друзьями:
В контактеFacebookОдноклассникиTwitterLivejournalМой МирLiveinternet
 

 
Показать сообщения:    


Вы не можете начинать темы
Вы не можете отвечать на сообщения
Вы не можете редактировать свои сообщения
Вы не можете удалять свои сообщения
Вы не можете голосовать в опросах
Вы не можете прикреплять файлы к сообщениям
Вы можете скачивать файлы