Loading...
Error

Скачать Бей в кость / Play It to the Bone (Рон Шелтон) [1999, комедия, драма, спорт, BDRip-AVC] [DVO] торрент без регистрации

 
Статистика раздачи
Размер:  2,15 GB   |    Скачан:  109 раз
Сидов:  1  [  0 KB/s  ]  
 
Автор Сообщение

Marsianka

[] 

Информация о фильме
Название: Бей в кость
Оригинальное название: Play It to the Bone
Год выхода: 1999
Жанр: комедия, драма, спорт
Режиссер: Рон Шелтон / Ron Shelton
В ролях: Антонио Бандерас, Вуди Харрельсон, Лолита Давидович, Том Сайзмор, Люси Лью, Роберт Вагнер, Ричард Мейсер, Уилли Гарсон, Силк Козарт, Джек Картер, Аида Туртурро, Луи Леонардо, Слэйд Барнетт, Камерон Милцер, Хулио Гарсия, Джонни Ортиз, Джорди Окланд, Уильям Ютей, Джозеф Арсено, Фред Льюис, Морис Сингер, Роберт Сейл, Джо Кортез, Брюс Буффер, Тедди Атлас, Дэна Ли, Роб Ингерсолл, Робби Робинсон, Митч Халперн, Чак Халл

О фильме:
Винс и Цезарь, близкие друзья, профессиональные боксеры, подававшие в прошлом большие надежды и однажды упустившие свой шанс. У обоих за плечами немало выигранных поединков, и сейчас, ведя обыкновенную, размеренную жизнь, они еле сводят концы с концами и не ждут перемен. Однако в глубине души обоих еще живет надежда на прорыв, подогреваемая юношеской мечтой о большом спорте, желание повернуть судьбу вспять, победив в большой игре. И вот фортуна, кажется, улыбается им. Их приглашают провести поединок в Лас-Вегасе, обещая большие деньги, а главное, право драться за звание чемпиона И вот давно забытые боль и азарт, разжигаемые ликующей публикой, возвращаются вновь, воскрешая в памяти горечь былых поражений и сладостный вкус приближающейся победы



Страна: США
Продолжительность: 02:03:36
Перевод: Профессиональный (двухголосый закадровый)

Файл
Кодек: x264
Качество: BDRip-AVC - исх. BDRip(720p)
Видео: x.264, 1024x432 (2.40:1), ~2036 kbps avg, 23,976 fps
Звук: AC-3, 448 Кбит/сек, 6 канала(ов), 48,0 КГц

Семпл
Общее
Уникальный идентификатор : 178545721800184600759895590080582917742 (0x8652A7BB8FE72A479818401EF1FE1E6E)
Полное имя : C:UsersveebruarDesktopФильмыBey.v.kost.1999.BDRip_AVC[R.G.RealMT] by veebruar.mkv
Формат : Matroska
Версия формата : Version 2
Размер файла : 2,15 Гбайт
Продолжительность : 2 ч. 3 м.
Общий поток : 2485 Кбит/сек
Дата кодирования : UTC 2013-02-04 05:42:31
Программа кодирования : mkvmerge v5.8.0 ('No Sleep / Pillow') built on Sep 2 2012 15:37:04
Библиотека кодирования : libebml v1.2.3 + libmatroska v1.3.0

Видео
Идентификатор : 1
Формат : AVC
Формат/Информация : Advanced Video Codec
Профиль формата : High@L4.1
Параметр CABAC формата : Да
Параметр ReFrames формата : 10 кадров
Идентификатор кодека : V_MPEG4/ISO/AVC
Продолжительность : 2 ч. 3 м.
Битрейт : 2036 Кбит/сек
Ширина : 1024 пикселя
Высота : 432 пикселя
Соотношение сторон : 2,40:1
Режим частоты кадров : Постоянный
Частота кадров : 23,976 кадра/сек
Цветовое пространство : YUV
Субдискретизация насыщенности : 4:2:0
Битовая глубина : 8 бит
Тип развёртки : Прогрессивная
Бит/(Пиксели*Кадры) : 0.192
Размер потока : 1,72 Гбайт (80%)
Библиотека кодирования : x264 core 125 r2208 d9d2288
Настройки программы : cabac=1 / ref=10 / deblock=1:-2:-1 / analyse=0x3:0x113 / me=umh / subme=10 / psy=1 / psy_rd=1.00:0.20 / mixed_ref=1 / me_range=24 / chroma_me=1 / trellis=2 / 8x8dct=1 / cqm=0 / deadzone=21,11 / fast_pskip=0 / chroma_qp_offset=-3 / threads=6 / lookahead_threads=1 / sliced_threads=0 / nr=0 / decimate=0 / interlaced=0 / bluray_compat=0 / constrained_intra=0 / bframes=10 / b_pyramid=2 / b_adapt=2 / b_bias=0 / direct=3 / weightb=1 / open_gop=0 / weightp=2 / keyint=250 / keyint_min=23 / scenecut=40 / intra_refresh=0 / rc_lookahead=60 / rc=2pass / mbtree=1 / bitrate=2036 / ratetol=1.0 / qcomp=0.60 / qpmin=0 / qpmax=51 / qpstep=4 / cplxblur=20.0 / qblur=0.5 / vbv_maxrate=62500 / vbv_bufsize=50000 / nal_hrd=none / ip_ratio=1.40 / aq=1:1.00
Default : Да
Forced : Нет

Аудио
Идентификатор : 2
Формат : AC-3
Формат/Информация : Audio Coding 3
Расширение режима : CM (complete main)
Параметр Endianness формата : Big
Идентификатор кодека : A_AC3
Продолжительность : 2 ч. 3 м.
Вид битрейта : Постоянный
Битрейт : 448 Кбит/сек
Каналы : 6 каналов
Расположение каналов : Front: L C R, Side: L R, LFE
Частота : 48,0 КГц
Битовая глубина : 16 бит
Метод сжатия : С потерями
Размер потока : 397 Мбайт (18%)
Default : Да
Forced : Нет
Релиз от: R.G.RealMT



Скачать Бей.в.кость.Play.It.to.the.Bone.(Рон.Шелтон).[1999.комедия.драма.спорт.BDRip-AVC].[DVO].torrent без регистрации
Золото ЗОЛОТАЯ РАЗДАЧА! СКАЧАННОЕ НЕ ЗАСЧИТЫВАЕТСЯ! Золото
Дата: Зарегистрирован   [ Тип: внутренний ] Как тут cкачать?
MAGNET ссылка
MAGNET ссылка


Скачать .torrent

11 KB

Статус: проверено DHT
Скачан: торрент - 109 раз, раздача полностью - 1 раз
Размер: 2,15 GB
Оценка:  - (Голосов: 0)
Поблагодарили: 0
Поделиться ссылкой на эту раздачу с друзьями:
В контактеFacebookОдноклассникиTwitterLivejournalМой МирLiveinternet
 

 
Показать сообщения:    


Вы не можете начинать темы
Вы не можете отвечать на сообщения
Вы не можете редактировать свои сообщения
Вы не можете удалять свои сообщения
Вы не можете голосовать в опросах
Вы не можете прикреплять файлы к сообщениям
Вы можете скачивать файлы