Loading...
Error

Скачать Успеть до полуночи / Midnight Run (Мартин Брест) [1988, боевик, триллер, комедия, криминал, приключения, HDDVDRip] [MVO] торрент без регистрации

 
Статистика раздачи
Размер:  757 MB   |    Скачан:  100 раз
Сидов:  1  [  0 KB/s  ]  
 
Автор Сообщение

Marsianka

[] 

Информация о фильме
Название: Успеть до полуночи
Оригинальное название: Midnight Run
Год выхода: 1988
Жанр: боевик, триллер, комедия, криминал, приключения
Режиссер: Мартин Брест / Martin Brest
В ролях: Роберт Де Ниро, Чарльз Гродин, Яфет Котто, Джон Эштон, Дэннис Фарина, Джо Пантолиано, Ричард Фороньи, Роберт Миранда, Джек Кехо, Венди Филлипс, Филип Бэйкер Холл, Мэри Гиллис, Джон Тоулс-Бей, Стэнли Уайт, Скотт МакЭфи, Лоис Смит, Фрэн Брил, Том МакКлейстер, Томас Дж. Хейджбок, Линда Маргулес, Майкл Д. Гейнсборо, Джон Хэммил, Лу Фелдер, Камерон Милцер, Соня М. Робертс, Фрэнк Пеше

О фильме:
Джек Уолш опытный профессионал, мастер своего дела. Когда-то он служил в полиции, а теперь занимается частным сыском. Его специализация операции по поимке беглых преступников. В этот раз Джек занят поисками Джонатана Мардукаса, известного под кличкой «Герцог». Мардукас, скромный и интеллигентный бухгалтер, умудрился украсть у мафии 15 миллионов долларов. По договоренности Джек должен поймать «Герцога», заковать в наручники и доставить на самолете из Нью-Йорка в Лос-Анджелес в условленный срок. За это Уолш получит целых сто тысяч долларов.

Для искушенного «охотника за головами» подобное задание сущий пустяк. Но Джек не учел, что помимо него за Мардукасом активно охотятся гангстеры, ФБР и вероломный коллега-конкурент. Более того, Мардукас панически боится летать и Джеку предстоит везти Герцога через всю Америку.




Страна: США
Продолжительность: 02:06:15
Перевод: Профессиональный (многоголосый закадровый)

Файл
Кодек: XviD
Качество: HDDVDRip
Видео: 672x368 (16:9), 23.976 fps, 701 Kbps, 0.118 Bits/(Pixel*Frame)
Звук: MP3, 48 KHz, 128 Kbps, 2 channels
General
Complete name : D:Uspet'.do.polunochi.1988.P.HDDVDRip.XviD.mp3.757mb.avi
Format : AVI
Format/Info : Audio Video Interleave
File size : 757 MiB
Duration : 2h 6mn
Overall bit rate : 838 Kbps
Writing application : VirtualDubMod 1.5.10.2 (build 2540/release)
Writing library : VirtualDubMod build 2540/release

Video
ID : 0
Format : MPEG-4 Visual
Format profile : Advanced Simple@L5
Format settings, BVOP : 1
Format settings, QPel : No
Format settings, GMC : No warppoints
Format settings, Matrix : Custom
Codec ID : XVID
Codec ID/Hint : XviD
Duration : 2h 6mn
Bit rate : 701 Kbps
Width : 672 pixels
Height : 368 pixels
Display aspect ratio : 16:9
Frame rate : 23.976 fps
Color space : YUV
Chroma subsampling : 4:2:0
Bit depth : 8 bits
Scan type : Progressive
Compression mode : Lossy
Bits/(Pixel*Frame) : 0.118
Stream size : 633 MiB (84%)
Writing library : XviD 1.2.1 (UTC 2008-12-04)

Audio
ID : 1
Format : MPEG Audio
Format version : Version 1
Format profile : Layer 3
Mode : Joint stereo
Codec ID : 55
Codec ID/Hint : MP3
Duration : 2h 6mn
Bit rate mode : Constant
Bit rate : 128 Kbps
Channel(s) : 2 channels
Sampling rate : 48.0 KHz
Compression mode : Lossy
Stream size : 116 MiB (15%)
Alignment : Aligned on interleaves
Interleave, duration : 42 ms (1.00 video frame)
Interleave, preload duration : 504 ms



Скачать Успеть.до.полуночи.Midnight.Run.(Мартин.Брест).[1988.боевик.триллер.комедия.криминал.приключения.HDDVDRip].[MVO].torrent без регистрации
Золото ЗОЛОТАЯ РАЗДАЧА! СКАЧАННОЕ НЕ ЗАСЧИТЫВАЕТСЯ! Золото
Дата: Зарегистрирован   [ Тип: внутренний ] Как тут cкачать?
MAGNET ссылка
MAGNET ссылка


Скачать .torrent

15 KB

Статус: проверено DHT
Скачан: торрент - 100 раз, раздача полностью - 7 раз
Размер: 757 MB
Оценка:  - (Голосов: 0)
Поблагодарили: 1
Поделиться ссылкой на эту раздачу с друзьями:
В контактеFacebookОдноклассникиTwitterLivejournalМой МирLiveinternet
 

 
Показать сообщения:    


Вы не можете начинать темы
Вы не можете отвечать на сообщения
Вы не можете редактировать свои сообщения
Вы не можете удалять свои сообщения
Вы не можете голосовать в опросах
Вы не можете прикреплять файлы к сообщениям
Вы можете скачивать файлы