Loading...
Error

Скачать Денежный поезд / Money Train (Джозеф Рубин) [1995, боевик, триллер, драма, комедия, криминал, HDRip] [Dub] торрент без регистрации

 
Статистика раздачи
Размер:  746 MB   |    Скачан:  110 раз
Сидов:  1  [  0 KB/s  ]  
 
Автор Сообщение

Marsianka

[] 

Информация о фильме
Название: Денежный поезд
Оригинальное название: Money Train
Год выхода: 1995
Жанр: боевик, триллер, драма, комедия, криминал
Режиссер: Джозеф Рубин / Joseph Ruben
В ролях: Уэсли Снайпс, Вуди Харрельсон, Дженнифер Лопез, Роберт Блейк, Крис Купер, Джо Грифази, Скотт Сауэрс, Скипп Саддат...

О фильме:
Два сводных брата, белый и чернокожий, с детства мечтавшие лишь об одном разбогатеть, задумывают дерзкое ограбление. Цель налетчиков поезд метро, каждую ночь перевозящий миллионы по тоннелям нью йоркской подземки. Только два обстоятельства останавливают их: они оба полицейские, а поезд находится под личной охраной их босса.

Но соблазн слишком велик, да и вредному боссу, накануне уволившему их со службы, насолить очень уж хочется, и вот в новогоднюю ночь пара новоявленных грабителей решает осуществить то, о чем они грезили всю жизнь угнать поезд и стать миллионерами




Страна: США
Продолжительность: 01:49:58
Перевод: Профессиональный (дублированный)

Файл
Кодек: XviD
Качество: HDRip
Видео: 656x272 (2.40:1), 23.976 fps, 811 Kbps, 0.19 Bits/(Pixel*Frame)
Звук: MP3, 48 KHz, 128 Kbps, 2 channels
General
Complete name : D:Denezhnyj.poezd.D.1995.HDRip.XviD.mp3.746mb.avi
Format : AVI
Format/Info : Audio Video Interleave
File size : 746 MiB
Duration : 1h 49mn
Overall bit rate : 948 Kbps
Writing application : VirtualDubMod 1.5.10.2 (build 2540/release)
Writing library : VirtualDubMod build 2540/release

Video
ID : 0
Format : MPEG-4 Visual
Format profile : Advanced Simple@L5
Format settings, BVOP : 1
Format settings, QPel : No
Format settings, GMC : No warppoints
Format settings, Matrix : Custom
Codec ID : XVID
Codec ID/Hint : XviD
Duration : 1h 49mn
Bit rate : 811 Kbps
Width : 656 pixels
Height : 272 pixels
Display aspect ratio : 2.40:1
Frame rate : 23.976 fps
Color space : YUV
Chroma subsampling : 4:2:0
Bit depth : 8 bits
Scan type : Progressive
Compression mode : Lossy
Bits/(Pixel*Frame) : 0.190
Stream size : 638 MiB (86%)
Writing library : XviD 1.2.1 (UTC 2008-12-04)

Audio
ID : 1
Format : MPEG Audio
Format version : Version 1
Format profile : Layer 3
Mode : Joint stereo
Mode extension : MS Stereo
Codec ID : 55
Codec ID/Hint : MP3
Duration : 1h 49mn
Bit rate mode : Constant
Bit rate : 128 Kbps
Channel(s) : 2 channels
Sampling rate : 48.0 KHz
Compression mode : Lossy
Stream size : 101 MiB (13%)
Alignment : Aligned on interleaves
Interleave, duration : 42 ms (1.00 video frame)
Interleave, preload duration : 504 ms



Скачать Денежный.поезд.Money.Train.(Джозеф.Рубин).[1995.боевик.триллер.драма.комедия.криминал.HDRip].[Dub].torrent без регистрации
Золото ЗОЛОТАЯ РАЗДАЧА! СКАЧАННОЕ НЕ ЗАСЧИТЫВАЕТСЯ! Золото
Дата: Зарегистрирован   [ Тип: внутренний ] Как тут cкачать?
MAGNET ссылка
MAGNET ссылка


Скачать .torrent

15 KB

Статус: проверено DHT
Скачан: торрент - 110 раз, раздача полностью - 16 раз
Размер: 746 MB
Оценка:  - (Голосов: 0)
Поблагодарили: 1
Поделиться ссылкой на эту раздачу с друзьями:
В контактеFacebookОдноклассникиTwitterLivejournalМой МирLiveinternet
 

 
Показать сообщения:    


Вы не можете начинать темы
Вы не можете отвечать на сообщения
Вы не можете редактировать свои сообщения
Вы не можете удалять свои сообщения
Вы не можете голосовать в опросах
Вы не можете прикреплять файлы к сообщениям
Вы можете скачивать файлы