Loading...
Error

Скачать Последний час / Zero Hour (сезон 01) (Стивен ДеПол, Билл Джирхарт, Пьер Морель) [2013, приключения, триллер, драма, детектив, WEB-DLRip] [Dub (Невафильм)] торрент без регистрации

 
Статистика раздачи
Размер:  10 GB   |    Скачан:  134 раза

Полного источника не было: 25 минут

 
Автор Сообщение

МихаНЕзатор

[] 

Информация о фильме
Название: Последний час
Оригинальное название: Zero Hour
Год выхода: 2013
Жанр: триллер, драма, детектив, приключения
Режиссер: Стивен Уильямс, Пьер Морель
В ролях: Энтони Эдвардс, Кармен Эджого, Скотт Майкл Фостер, Эддисон Тимлин, Джасинда Бэррет, Микаэл Нюквист, Эми Ирвинг, Кен Люн, Генри Келемен, Чарльз С. Даттон, Клаудия МакЛэйн, Амир Арисон и др.

О фильме:
Энтузиаст-издатель журнала о паранормальном «Современный скептик» Хэнк Галлистон потратил свою карьеру, следуя за подсказками, разоблачая мифы и раскрывая заговоры. Признанный помешанным на сверхъестественном, он руководствуется девизом «Логика это компас». Но когда его красивая жена Лейла похищена из своего магазина антикварных часов, Хэнк втягивается в одну из самых интригующих тайн в истории человечества, охватывающую весь мир и прошлые столетия.

Карта сокровищ спрятана внутри одних из часов его жены, и то, к чему она приведет, может вызвать катастрофические последствия. Теперь Хэнк должен расшифровать символы и раскрыть тайны карты, но так, чтобы ответы не попали в плохие руки руки человека, которого они называют Белым Винсентом. С двумя юными союзниками Рэйчел и Эрроном, а также привлекательным агентом ФБР Беккой Райли, Хэнк поведет их на захватывающую гонку на время, чтобы найти жену и спасти человечество.



Страна: США
Продолжительность: 9 x ~ 00:40:00
Перевод: Профессиональный (дублированный) Невафильм

Файл
Кодек: XviD
Качество: WEB-DLRip
Видео: 720x400 (16/9), 23.976 fps, ~2000 Kbps (0.290 bit/pixel)
Звук:
Аудио Rus: AC-3, 48.0 KHz, 2 ch, 192 Kbps / Невафильм /
Аудио Eng: AC-3, 48.0 KHz, 6 ch, 384 Kbps / Оригинал /

Релиз: CasStudio
Работа со звуком: BS666
Рип: xironfs

28.10.2013 г. торент обновлён, добавлена 10-13 серия!

Season 1, Episodes 1-8
01 - Пораженный / Strike
02 - Циферблат / Face
03 - Маятник / Pendulum
04 - Цепь / Chain
05 - Нить подвеса / Suspension
06 - Гирька / Weight
07 - Сверим часы / Sync
08 - Спираль / Winding
09 - Балансир / Balance
10 - Спусковой механизм / Escapement
11 - Стрелки / Hands
12 - Собачка / Ratchet
13 - Пружина / Spring

Format : AVI
Format/Info : Audio Video Interleave
File size : 792 MiB
Duration : 42mn 39s
Overall bit rate : 2 595 Kbps
Writing application : VirtualDubMod 1.5.10.2 (build 2540/release)
Writing library : VirtualDubMod build 2540/release

Video
ID : 0
Format : MPEG-4 Visual
Format profile : Advanced Simple@L5
Format settings, BVOP : 1
Format settings, QPel : No
Format settings, GMC : No warppoints
Format settings, Matrix : Default (MPEG)
Codec ID : XVID
Codec ID/Hint : XviD
Duration : 42mn 39s
Bit rate : 2 005 Kbps
Width : 720 pixels
Height : 400 pixels
Display aspect ratio : 16:9
Frame rate : 23.976 fps
Color space : YUV
Chroma subsampling : 4:2:0
Bit depth : 8 bits
Scan type : Progressive
Compression mode : Lossy
Bits/(Pixel*Frame) : 0.290
Stream size : 612 MiB (77%)
Writing library : XviD 65

Audio #1
ID : 1
Format : AC-3
Format/Info : Audio Coding 3
Mode extension : CM (complete main)
Format settings, Endianness : Big
Codec ID : 2000
Duration : 42mn 39s
Bit rate mode : Constant
Bit rate : 192 Kbps
Channel(s) : 2 channels
Channel positions : Front: L R
Sampling rate : 48.0 KHz
Bit depth : 16 bits
Compression mode : Lossy
Stream size : 58.6 MiB (7%)
Alignment : Split accross interleaves
Interleave, duration : 42 ms (1.00 video frame)
Interleave, preload duration : 500 ms

Audio #2
ID : 2
Format : AC-3
Format/Info : Audio Coding 3
Mode extension : CM (complete main)
Format settings, Endianness : Big
Codec ID : 2000
Duration : 42mn 39s
Bit rate mode : Constant
Bit rate : 384 Kbps
Channel(s) : 6 channels
Channel positions : Front: L C R, Side: L R, LFE
Sampling rate : 48.0 KHz
Bit depth : 16 bits
Compression mode : Lossy
Stream size : 117 MiB (15%)
Alignment : Split accross interleaves
Interleave, duration : 42 ms (1.00 video frame)
Interleave, preload duration : 500 ms



Скачать Последний.час.Zero.Hour.(сезон.01).(Стивен.ДеПол.Билл.Джирхарт.Пьер.Морель).[2013.приключения.триллер.драма.детектив.WEB-DLRip].[Dub.(Невафильм)].torrent без регистрации
Золото ЗОЛОТАЯ РАЗДАЧА! СКАЧАННОЕ НЕ ЗАСЧИТЫВАЕТСЯ! Золото
Дата: Зарегистрирован   [ Тип: внутренний ] Как тут cкачать?
MAGNET ссылка
MAGNET ссылка


Скачать .torrent

27 KB

Статус: проверено DHT
Скачан: торрент - 134 раз, раздача полностью - 16 раз
Размер: 10 GB
Оценка:  - (Голосов: 0)
Поблагодарили: 2
Поделиться ссылкой на эту раздачу с друзьями:
В контактеFacebookОдноклассникиTwitterLivejournalМой МирLiveinternet
 

 

МихаНЕзатор

[] 

Раздача обновлена
 
Показать сообщения:    


Вы не можете начинать темы
Вы не можете отвечать на сообщения
Вы не можете редактировать свои сообщения
Вы не можете удалять свои сообщения
Вы не можете голосовать в опросах
Вы не можете прикреплять файлы к сообщениям
Вы можете скачивать файлы