Loading...
Error

Скачать Разоблачение / Disclosure (Барри Левинсон) [1994, триллер, драма, HDRip] [Dub] торрент без регистрации

 
Статистика раздачи
Размер:  768 MB   |    Скачан:  108 раз
Сидов:  1  [  0 KB/s  ]  
 
Автор Сообщение

Marsianka

[] 

Информация о фильме
Название: Разоблачение
Оригинальное название: Disclosure
Год выхода: 1994
Жанр: триллер, драма
Режиссер: Барри Левинсон / Barry Levinson
В ролях: Майкл Дуглас, Деми Мур, Дональд Сазерленд, Кэролайн Гудолл, Рома Маффиа, Дилан Бейкер, Розмари Форсайт, Дэннис Миллер...

О фильме:
Его карьера. Его брак. Его будущее. Все это оказалось под угрозой для сотрудника компании «DigiCom» Тома Сандерса. Он устоял перед напором страсти со стороны начальницы. Но в отместку она обвинила его в сексуальных домогательствах.
И Том, проработавший в этой компании много лет, вынужден защищаться, чтобы не потерять место. Благодаря этой борьбе он попадает в головокружительный кибернетический мир виртуальной реальности в недрах «DigiCom».




Страна: США
Продолжительность: 02:08:20
Перевод: Профессиональный (дублированный) Моствидео

Файл
Кодек: XviD
Качество: HDRip
Видео: 656x272 (2.40:1), 23.976 fps, 700 Kbps, 0.164 Bits/(Pixel*Frame)
Звук: MP3, 48 KHz, 128 Kbps, 2 channels
General
Complete name : D:Razoblachenie.1994.D.HDRip.XviD.mp3.768mb.avi
Format : AVI
Format/Info : Audio Video Interleave
File size : 768 MiB
Duration : 2h 8mn
Overall bit rate : 837 Kbps
Writing application : VirtualDubMod 1.5.10.2 (build 2540/release)
Writing library : VirtualDubMod build 2540/release

Video
ID : 0
Format : MPEG-4 Visual
Format profile : Advanced Simple@L5
Format settings, BVOP : 1
Format settings, QPel : No
Format settings, GMC : No warppoints
Format settings, Matrix : Custom
Codec ID : XVID
Codec ID/Hint : XviD
Duration : 2h 8mn
Bit rate : 700 Kbps
Width : 656 pixels
Height : 272 pixels
Display aspect ratio : 2.40:1
Frame rate : 23.976 fps
Color space : YUV
Chroma subsampling : 4:2:0
Bit depth : 8 bits
Scan type : Progressive
Compression mode : Lossy
Bits/(Pixel*Frame) : 0.164
Stream size : 642 MiB (84%)
Writing library : XviD 1.2.1 (UTC 2008-12-04)

Audio
ID : 1
Format : MPEG Audio
Format version : Version 1
Format profile : Layer 3
Mode : Joint stereo
Codec ID : 55
Codec ID/Hint : MP3
Duration : 2h 8mn
Bit rate mode : Constant
Bit rate : 128 Kbps
Channel(s) : 2 channels
Sampling rate : 48.0 KHz
Compression mode : Lossy
Stream size : 118 MiB (15%)
Alignment : Aligned on interleaves
Interleave, duration : 42 ms (1.00 video frame)
Interleave, preload duration : 504 ms



Скачать Разоблачение.Disclosure.(Барри.Левинсон).[1994.триллер.драма.HDRip].[Dub].torrent без регистрации
Золото ЗОЛОТАЯ РАЗДАЧА! СКАЧАННОЕ НЕ ЗАСЧИТЫВАЕТСЯ! Золото
Дата: Зарегистрирован   [ Тип: внутренний ] Как тут cкачать?
MAGNET ссылка
MAGNET ссылка


Скачать .torrent

16 KB

Статус: проверено DHT
Скачан: торрент - 108 раз, раздача полностью - 7 раз
Размер: 768 MB
Оценка:  - (Голосов: 0)
Поблагодарили: 0
Поделиться ссылкой на эту раздачу с друзьями:
В контактеFacebookОдноклассникиTwitterLivejournalМой МирLiveinternet
 

 
Показать сообщения:    


Вы не можете начинать темы
Вы не можете отвечать на сообщения
Вы не можете редактировать свои сообщения
Вы не можете удалять свои сообщения
Вы не можете голосовать в опросах
Вы не можете прикреплять файлы к сообщениям
Вы можете скачивать файлы