Loading...
Error

Скачать Спасатель / The Guardian (Эндрю Дэвис) [2006, боевик, драма, приключения, HDRip-AVC] [Dub][Лицензия]+[Оригинал] торрент без регистрации

Статистика раздачи
Размер:  2,18 GB   |    Скачан:  171 раз
Сидов:  1  [  9 KB/s  ]  
 
 
 
Автор Сообщение

Marsianka

[] 

Спасатель / The Guardian

Слоган: «Жертвуй всем, когда нужно спасти людей»

Год выпуска: 2006
Производство: США
Жанр: боевик, драма, приключения
Продолжительность: 02:19:04

Перевод: Профессиональный (полное дублирование) [Лицензия]
Оригинальный аудиопоток: английский
Субтитры: отсутствуют

Режиссер: Эндрю Дэвис / Andrew Davis

В ролях:
Кевин Костнер, Эштон Катчер, Сила Уорд, Мелисса Сейджмиллер, Клэнси Браун, Омари Хардвик, Алекс Дэниелс, Дэниэл Л. Молтен, Эндрю Шанно, Адам Пеня

Описание:
Бен Рэнделл, легендарный пловец-спасатель когда-то в ужасной катастрофе потерял всю свою команду. Чтобы найти свое место в жизни, и забыть о том страшном событии, он решает пойти в Береговую охрану, где в его обязанности входит тренировка молодых спасателей. Здесь, он сталкивается с молодым и талантливым пловцом «с характером» Джейком Фишером. В процессе обучения Бен помогает Джейку скомбинировать его характер с его способностями. В конце обучения они вдвоем отправляются к Аляске, в Берингово море, где Джейку придется пройти самое важное испытание



Качество: HDRip-AVC
Формат: MKV
Видео: 1008x544, 23.976fps, 1670 Kbps, 0.127 bit/pixel
Аудио 1: AC3, 48.0 KHz, 6 ch, 384 Kbps - Rus
Аудио 2: AC3, 48.0 KHz, 2 ch, 192 Kbps - Eng
Format : Matroska
Format version : Version 2
File size : 2.18 GiB
Duration : 2h 19mn
Overall bit rate : 2 248 Kbps
Movie name : The Guardian 2006 - The Jolly Roger by Pirat.Ca [zyyx]
Encoded date : UTC 2012-07-04 17:52:22
Writing application : mkvmerge v4.9.1 ('Ich will') сборка от Jul 11 2011 23:53:15
Writing library : libebml v1.2.1 + libmatroska v1.1.1

Video
ID : 1
Format : AVC
Format/Info : Advanced Video Codec
Format profile : High@L4.1
Format settings, CABAC : Yes
Format settings, ReFrames : 12 frames
Codec ID : V_MPEG4/ISO/AVC
Duration : 2h 19mn
Bit rate : 1 670 Kbps
Width : 1 008 pixels
Height : 544 pixels
Display aspect ratio : 1.85:1
Frame rate : 23.976 fps
Color space : YUV
Chroma subsampling : 4:2:0
Bit depth : 8 bits
Scan type : Progressive
Bits/(Pixel*Frame) : 0.127
Stream size : 1.58 GiB (72%)
Title : R.G. Jolly Roger
Writing library : x264 core 116 r2044 392e762
Encoding settings : cabac=1 / ref=12 / deblock=1:-2:-1 / analyse=0x3:0x133 / me=umh / subme=10 / psy=1 / psy_rd=1.00:0.10 / mixed_ref=1 / me_range=32 / chroma_me=1 / trellis=2 / 8x8dct=1 / cqm=0 / deadzone=21,11 / fast_pskip=1 / chroma_qp_offset=-3 / threads=6 / sliced_threads=0 / nr=0 / decimate=1 / interlaced=0 / bluray_compat=0 / constrained_intra=0 / bframes=8 / b_pyramid=2 / b_adapt=2 / b_bias=0 / direct=3 / weightb=1 / open_gop=0 / weightp=2 / keyint=250 / keyint_min=23 / scenecut=40 / intra_refresh=0 / rc_lookahead=50 / rc=2pass / mbtree=1 / bitrate=1670 / ratetol=1.0 / qcomp=0.60 / qpmin=0 / qpmax=69 / qpstep=4 / cplxblur=20.0 / qblur=0.5 / ip_ratio=1.40 / aq=1:1.00
Default : Yes
Forced : No

Audio #1
ID : 2
Format : AC-3
Format/Info : Audio Coding 3
Mode extension : CM (complete main)
Format settings, Endianness : Big
Codec ID : A_AC3
Duration : 2h 19mn
Bit rate mode : Constant
Bit rate : 384 Kbps
Channel(s) : 6 channels
Channel positions : Front: L C R, Side: L R, LFE
Sampling rate : 48.0 KHz
Bit depth : 16 bits
Compression mode : Lossy
Stream size : 382 MiB (17%)
Language : Russian
Default : Yes
Forced : No

Audio #2
ID : 3
Format : AC-3
Format/Info : Audio Coding 3
Mode extension : CM (complete main)
Format settings, Endianness : Big
Codec ID : A_AC3
Duration : 2h 19mn
Bit rate mode : Constant
Bit rate : 192 Kbps
Channel(s) : 2 channels
Channel positions : Front: L R
Sampling rate : 48.0 KHz
Bit depth : 16 bits
Compression mode : Lossy
Stream size : 191 MiB (9%)
Language : English
Default : No
Forced : No



Скачать Спасатель.The.Guardian.(Эндрю.Дэвис).[2006.боевик.драма.приключения.HDRip-AVC].[Dub][Лицензия]+[Оригинал].torrent без регистрации
Золото ЗОЛОТАЯ РАЗДАЧА! СКАЧАННОЕ НЕ ЗАСЧИТЫВАЕТСЯ! Золото
Дата: Зарегистрирован   [ Тип: внутренний ] Как тут cкачать?
MAGNET ссылка
MAGNET ссылка


Скачать .torrent

12 KB

Статус: проверено DHT
Скачан: торрент - 171 раз, раздача полностью - 557 раз
Размер: 2,18 GB
Оценка:  4,8 (Голосов: 4)
Поблагодарили: 5
Поделиться ссылкой на эту раздачу с друзьями:
В контактеFacebookОдноклассникиTwitterLivejournalМой МирLiveinternet
 

 
Показать сообщения:    


Вы не можете начинать темы
Вы не можете отвечать на сообщения
Вы не можете редактировать свои сообщения
Вы не можете удалять свои сообщения
Вы не можете голосовать в опросах
Вы не можете прикреплять файлы к сообщениям
Вы можете скачивать файлы