Loading...
Error

Скачать Как я встретил вашу маму / How I Met Your Mother (сезоны 01-09) (Картер Бэйс, Памела Фрайман, Крейг Томас) [2005-2014, мелодрама, комедия, HDTVRip, WEB-DLRip, DVDRip][VO (Кураж-Бамбей)] торрент без регистрации

 
Статистика раздачи
Размер:  39,21 GB   |    Скачан:  5635 раз
Сидов:  1  [  16 KB/s  ]   Личеров:  1  [  0 KB/s  ]  
 
Автор Сообщение

МихаНЕзатор

[] 

Как я встретил вашу маму / How I Met Your Mother
Сезоны: 1 - 9, Серии: 1 208 из 208


Раздача обновлена. Добавлена 4-24 серия 9-го сезона


Год выпуска: 2005 2013
Страна: США
Жанр: мелодрама, комедия
Продолжительность: 00:25:00
Перевод: Профессиональный одноголосый закадровый (Кураж-Бамбей)
Русские субтитры: нет
Субтитры: отсутствуют

Режиссёр: Картер Бэйс / Carter Bays, Памела Фрайман / Pamela Fryman, Крейг Томас / Craig Thomas

В ролях: Джош Рэднор, Джейсон Сигел, Коби Смолдерс, Нил Патрик Харрис, Элисон Хэннигэн

Описание: «Как я встретил вашу маму» комедия про Теда и про то, как он влюбился. Все неприятности начинаются с того, что лучший друг Теда, Маршалл, вдруг неожиданно сообщил, что он хочет сделать предложение своей давней подруге, Лили, воспитательнице детского сада. К тому времени Тед понимает, что ему нужно прилагать больше усилий, если он действительно надеется найти свою настоящую любовь. Помогает ему в этих поисках его друг Барни, убежденный холостяк, вечно со своим, иногда чересчур, мнением на все происходящее, со склонностью к костюмам и верным способом познакомиться с девушками. Когда Тед встречает Робин, он решает, что это любовь с первого взгляда, но у судьбы в запасе есть кое-что еще.



Качество: HDTVRip, WEB-DLRip, DVDRip
Формат: AVI

Видео:
624x352 (16/9), 23.976 fps, XViD ~1 024 Kbps (0.209 bit/pixel) Сезон 1: 22 серии HDTVRip
640x352 (16/9), 23.976 fps, XViD ~978 Kbps (0.181 bit/pixel) Сезон 2: 22 серии HDTVRip
624x352 (16/9), 23.976 fps, XViD ~1 030 Kbps (0.196 bit/pixel) Сезон 3: 20 серий DVDRip
640x352 (16/9), 23.976 fps, XViD ~975 Kbps (0.181 bit/pixel) Сезон 4: 24 серии HDTVRip
720x400 (16/9), 23.976 fps, XViD ~1 107 Kbps (0.160 bit/pixel) Сезон 5: 24 серии HDTVRip
624x352 (16/9), 23.976 fps, XViD ~1 009 Kbps (0.192 bit/pixel) Сезон 6: 24 серии WEB-DLRip
624x352 (16/9), 23.976 fps, XViD ~1 001 Kbps (0.190 bit/pixel) Сезон 7: 24 серии HDTVRip
656x368 (16/9), 23.976 fps, XViD ~1 031 Kbps (0.178 bit/pixel) Сезон 8: 24 серии HDTVRip
720x404 (16/9), 23.976 fps, AVC ~1 019 Kbps (0.146 bit/pixel) Сезон 9: 24 серии HDTVRip
Аудио: Русский: 48 kHz, MPEG Layer 3, 2 ch, ~160.00 kbps avg

» В одной из серий к Барни приезжает его брат, Джеймс, который является геем. В реальной жизни исполнитель роли Барни, Нил Патрик Харрис представитель секс-меньшинств.
» Вступительную песню под названием «Hey Beautiful» исполняет группа «The Solids», основателями которой являются создатели сериала Томас Крейг и Картер Бейз.
» Братский кодекс (англ. The Bro Code), про который так часто упоминает Барни на протяжении всего сериала, был выпущен издательством «Simon & Schuster» в 2008 году.
» Прообразом бара «MacLaren`s» любимого бара главных героев, является реально существующий в Нью-Йорке бар «McGee`s». В сериале бар назван так в честь помощника Картера Бейза Карла МакЛарена, бармена в сериале также зовут Карл.
» В квартире Маршала и Теда, как и в известном фильме «Криминальное чтиво», часы всегда показывают 4:20.

При каждом добавлении создётся новый торрент. Чтобы начать докачку новой серии, пользователям необходимо сделать следующее:
1) остановить скачивание,
2) удалить старый торрент у себя из клиента (старые серии удалять не надо),
3) скачать новый торрент и запустить его у себя в клиенте вместо старого, при этом указать клиенту путь в старую папку куда и должно происходить скачивание новых серий.
Ваш клиент при этом должен произвести хеширование (проверку) старой папки (если не производит сам - помогите ему сделать это), и будет докачивать только те серии которых у вас ещё нет. Старые серии при этом не удаляются, а продолжают раздаваться!
Eсли вы уже удалили старые серии, то предотвратить повторную закачку старых серий можно, отжав галочку в соответсвующих местах при запуске нового торрента.

General
Complete name : ..How I Met Your MotherSeason 11 Pilot.avi
Format : AVI
Format/Info : Audio Video Interleave
File size : 181 MiB
Duration : 22mn 4s
Overall bit rate : 1 146 Kbps
Writing application : Nandub v1.0rc2
Writing library : VirtualDub-MPEG2 build 24586/release

Video
ID : 0
Format : MPEG-4 Visual
Format profile : Simple@L3
Format settings, BVOP : 2
Format settings, QPel : No
Format settings, GMC : No warppoints
Format settings, Matrix : Default (MPEG)
Codec ID : XVID
Codec ID/Hint : XviD
Duration : 22mn 4s
Bit rate : 977 Kbps
Width : 624 pixels
Height : 352 pixels
Display aspect ratio : 16:9
Frame rate : 23.976 fps
Color space : YUV
Chroma subsampling : 4:2:0
Bit depth : 8 bits
Scan type : Progressive
Compression mode : Lossy
Bits/(Pixel*Frame) : 0.185
Stream size : 154 MiB (85%)
Writing library : XviD 1.1.0 Beta2 (UTC 2005-04-04)

Audio
ID : 1
Format : MPEG Audio
Format version : Version 1
Format profile : Layer 3
Codec ID : 55
Codec ID/Hint : MP3
Duration : 22mn 4s
Bit rate mode : Constant
Bit rate : 160 Kbps
Channel(s) : 2 channels
Sampling rate : 48.0 KHz
Compression mode : Lossy
Stream size : 25.3 MiB (14%)
Alignment : Aligned on interleaves
Interleave, duration : 42 ms (1.00 video frame)
Interleave, preload duration : 504 ms



Скачать Как.я.встретил.вашу.маму.How.I.Met.Your.Mother.(сезоны.01-09).(Картер.Бэйс.Памела.Фрайман.Крейг.Томас).[2005-2014.мелодрама.комедия.HDTVRip.WEB-DLRip.DVDRip][VO.(Кураж-Бамбей)].torrent без регистрации
Золото ЗОЛОТАЯ РАЗДАЧА! СКАЧАННОЕ НЕ ЗАСЧИТЫВАЕТСЯ! Золото
Дата: Зарегистрирован   [ Тип: внутренний ] Как тут cкачать?
MAGNET ссылка
MAGNET ссылка


Скачать .torrent

115 KB

Статус: проверено DHT
Скачан: торрент - 5635 раз, раздача полностью - 319 раз
Размер: 39,21 GB
Оценка:  5 (Голосов: 2)
Поблагодарили: 6
Поделиться ссылкой на эту раздачу с друзьями:
В контактеFacebookОдноклассникиTwitterLivejournalМой МирLiveinternet
 

 

МихаНЕзатор

[] 

Раздача обновлена.
 
Показать сообщения:    


Вы не можете начинать темы
Вы не можете отвечать на сообщения
Вы не можете редактировать свои сообщения
Вы не можете удалять свои сообщения
Вы не можете голосовать в опросах
Вы не можете прикреплять файлы к сообщениям
Вы можете скачивать файлы