Loading...
Error

Скачать Дьявол носит "Prada"/ The Devil Wears Prada (Дэвид Фрэнкел) [2006, мелодрама, комедия, BDRip - AVC] [DUB] торрент без регистрации

 
Статистика раздачи
Размер:  2,23 GB   |    Скачан:  171 раз
Сидов:  1  [  0 KB/s  ]  
 
Автор Сообщение

and77200

[] 


Дьявол носит «Prada»

«В этом сезоне дьявол придет на каблуках...»

Год выпуска: 2006
Страна: США
Жанр: драма, мелодрама, комедия
Продолжительность: 01:49:24
Перевод: Профессиональный (полное дублирование)
Режиссер: Дэвид Фрэнкел / David Frankel

В ролях: Мэрил Стрип (Miranda Priestly), Энн Хэтэуэй (Andrea 'Andy' Sachs), Эмили Блант (Emily Chalton), Стэнли Туччи (Nigel), Саймон Бейкер (Christian Thompson), Эдриан Гренье (Nate), Трейси Томс (Lily), Рич Соммер (Doug), Дэниел Сунджата (James Holt), Дэвид Маршалл Грант (Richard Sachs), Джеймс Нафтон (Stephen), Тибор Фельдман (Irv Ravitz)
Описание: Мечтающая стать журналисткой провинциальная девушка Андреа по окончании университета получает должность помощницы всесильной Миранды Пристли, деспотичного редактора одного из крупнейших нью-йоркских журналов мод. Андреа всегда мечтала о такой работе, не зная, с каким нервным напряжением это будет связано...

Качество: BDRip
Контейнер: MKV
Видео кодек: AVC
Аудио кодек: AC3

Видео: AVC, 1024x432 (2.35:1), 2550 kbps, 23,976 fps, 0,240 bpp
Аудио: AC3 / 5.1 / 48 kHz / 384 kbps / 16 bit
Рип: and77200



General
Complete name : E:\торрент\Дьявол носит Prada (2006)BDRip - AVC.mkv
Format : Matroska
File size : 2.23 GiB
Duration : 1h 49mn
Overall bit rate : 2 922 Kbps
Movie name : The Devil Wears Prada (2006)
Encoded date : UTC 2013-02-07 07:08:58
Writing application : mkvmerge v5.8.0 ('No Sleep / Pillow') built on Sep 2 2012 15:37:04
Writing library : libebml v1.2.3 + libmatroska v1.3.0

Video
ID : 1
Format : AVC
Format/Info : Advanced Video Codec
Format profile : High@L4.1
Format settings, CABAC : Yes
Format settings, ReFrames : 5 frames
Muxing mode : Container profile=Unknown@4.1
Codec ID : V_MPEG4/ISO/AVC
Duration : 1h 49mn
Bit rate : 2 480 Kbps
Nominal bit rate : 2 550 Kbps
Width : 1 024 pixels
Height : 432 pixels
Display aspect ratio : 2.35:1
Frame rate : 23.976 fps
Resolution : 24 bits
Colorimetry : 4:2:0
Scan type : Progressive
Bits/(Pixel*Frame) : 0.234
Stream size : 1.89 GiB (85%)
Writing library : x264 core 125 r2208 d9d2288
Encoding settings : cabac=1 / ref=5 / deblock=1:0:0 / analyse=0x3:0x133 / me=umh / subme=9 / psy=1 / psy_rd=1.00:0.00 / mixed_ref=1 / me_range=32 / chroma_me=1 / trellis=2 / 8x8dct=1 / cqm=0 / deadzone=21,11 / fast_pskip=1 / chroma_qp_offset=-2 / threads=3 / lookahead_threads=1 / sliced_threads=0 / nr=0 / decimate=1 / interlaced=0 / bluray_compat=0 / constrained_intra=0 / bframes=5 / b_pyramid=2 / b_adapt=2 / b_bias=0 / direct=1 / weightb=1 / open_gop=0 / weightp=2 / keyint=250 / keyint_min=23 / scenecut=40 / intra_refresh=0 / rc_lookahead=60 / rc=abr / mbtree=1 / bitrate=2550 / ratetol=1.0 / qcomp=0.60 / qpmin=0 / qpmax=69 / qpstep=4 / ip_ratio=1.40 / aq=1:1.00

Audio
ID : 2
Format : AC-3
Format/Info : Audio Coding 3
Codec ID : A_AC3
Duration : 1h 49mn
Bit rate mode : Constant
Bit rate : 384 Kbps
Channel(s) : 6 channels
Channel positions : Front: L C R, Surround: L R, LFE
Sampling rate : 48.0 KHz
Stream size : 300 MiB (13%)
Оформление by and77200



Скачать Дьявол.носит."Prada".The.Devil.Wears.Prada.(Дэвид.Фрэнкел).[2006.мелодрама.комедия.BDRip.-.AVC].[DUB].torrent без регистрации
Золото ЗОЛОТАЯ РАЗДАЧА! СКАЧАННОЕ НЕ ЗАСЧИТЫВАЕТСЯ! Золото
Дата: Зарегистрирован   [ Тип: внутренний ] Как тут cкачать?
MAGNET ссылка
MAGNET ссылка


Скачать .torrent

179 KB

Статус: проверено DHT
Скачан: торрент - 171 раз, раздача полностью - 0 раз
Размер: 2,23 GB
Оценка:  5 (Голосов: 1)
Поблагодарили: 3
Поделиться ссылкой на эту раздачу с друзьями:
В контактеFacebookОдноклассникиTwitterLivejournalМой МирLiveinternet
 

 
Показать сообщения:    


Вы не можете начинать темы
Вы не можете отвечать на сообщения
Вы не можете редактировать свои сообщения
Вы не можете удалять свои сообщения
Вы не можете голосовать в опросах
Вы не можете прикреплять файлы к сообщениям
Вы можете скачивать файлы