Loading...
Error

Скачать Игра / The Game (Дэвид Финчер) [1997, триллер, приключения, детектив, BDRip-AVC] [Dub]+[MVO]x3+[DVO]+[AVO]x2 торрент без регистрации

 
Статистика раздачи
Размер:  4,68 GB   |    Скачан:  170 раз
Сидов:  1  [  0 KB/s  ]  
 
Автор Сообщение

Marsianka

[] 

Информация о фильме
Название: Игра
Оригинальное название: The Game
Год выхода: 1997
Жанр: триллер, приключения, детектив
Режиссер: Дэвид Финчер
В ролях: Майкл Дуглас, Шон Пенн, Дебора Кара Ангер, Джеймс Ребхорн, Питер Донат, Кэррол Бейкер, Анна Катарина, Армин Мюллер-Шталь, Чарльз Мартине, Юдзи Окумото, Скотт Хантер МакГуайр, Флорентин Макану, Элизабет Деннехи, Кэролин Барклай, Дэниэл Шорр, Джон Эпри, Харрисон Янг, Кимберли Расселл, Джо Фрэнк, Джеймс Брукс, Джерри Бекер, Джерион Монро, Томми Флэнаган, Билл Флэннери, Кэтрин Харрис, Джон Кассини, Харрис Савидес, Аарон Лукич, Виктор Тэлмадж, Марк Сиглер, Андре Бразо, Кеена Тернер, Карлос Хой, Эдвард Кэмпбелл, Шон Лантье, Кертис Вантерпул, Джей Гордон, Джеффри Майкл Янг, Оуэн Мастерсон, Хидео Кимура, Рэйчел Флэнеган

О фильме:
О фильме: Николас Ван Ортон само воплощение успеха. Он преуспевает, он невозмутим и спокоен, привык держать любую ситуацию под контролем. На день рождения Николас получает необычный подарок билет для участия в «Игре». Ему обещают, что игра вернет яркие чувства, позволит ощутить вкус и остроту жизни. Вступив в игру, Николас начинает осознавать, что это игра всерьез, игра не на жизнь, а на смерть.



Страна: США
Студия: Polygram Filmed Entertainment, Propaganda Films, A&B Producoes, Lda
Продолжительность: 02:08:38
Перевод: Дублированный, профессиональный (многоголосый закадровый), профессиональный (двухголосый закадровый), авторский (одноголосый закадровый)

Файл
Кодек: h.264
Качество: BDRip-AVC
Видео: MPEG-4 AVC, 2517 Кбит/с, 1024x436, 23.976 кадр/с
1: Русский (AC3, 6 ch, 384 Кбит/с) Дублированный [R5]
2: Русский (AC3, 6 ch, 384 Кбит/с) Профессиональный многоголосый [BD CEE, Позитив-Мультимедиа]
Отдельно:
3: Русский (AC3, 6 ch, 384 Кбит/с) Профессиональный многоголосый [LigaHQ]
4: Русский (AC3, 2 ch, 192 Кбит/с) Профессиональный многоголосый [ОРТ]
5: Русский (AC3, 2 ch, 192 Кбит/с) Профессиональный двухголосый [Союз-Видео]
6: Русский (AC3, 6 ch, 384 Кбит/с) Авторский одноголосый [Андрей Гаврилов]
7: Русский (AC3, 6 ch, 384 Кбит/с) Авторский одноголосый [Юрий Живов]
8: Английский (AC3, 6 ch, 384 Кбит/с)

Субтитры: Русские, английские

Спайк Джонс сыграл камео медработника, светящего в глаз Николаса в конце фильма.
Дэвид Финчер сообщил в интервью английскому журналу Empire, что в каждой сцене фильма присутствует телячий рубец (англ. haggis). Это связано с прозвищем оператора фильма Савидеса Харриса Haggis.
Когда Николас входит в комнату отеля Nikko, в телевизоре можно увидеть кадры из порно-фильма с участием известного порно-актёра Тони Тадеши.
Джоди Фостер, сыгравшая главную роль в фильме Финчера «Комната страха», планировала принять участие в съёмках «Игры», но не смогла из-за плотного рабочего графика.
Сюжет фильма основан на реально существующей ролевой игре, популярной в США. Идея этой игры проистекает из фильма 1980 года «Полночное безумие» (Midnight Madness). В «Игре» также можно найти реминисценции из романа Джона Фаулза «Волхв».
Кроме «настоящей» расшифровки аббревиатуры CRS (Consumer Recreation Services), в фильме ещё встречаются и другие. Это карточка на приборной панели мчащегося такси, в котором едет Николас (California Regal Sedans) и надпись на фургоне, припаркованном у дома Кристин, откуда потом вооруженные люди открывают стрельбу по зданию (Cable Repair Specialists).

Полное имя : Igra.1997.x264.BDRip.(AVC).0ptimus.mkv
Формат : Matroska
Версия формата : Version 4 / Version 2
Размер файла : 2,95 Гбайт
Продолжительность : 2 ч. 8 м.
Общий поток : 3285 Кбит/сек
Название фильма : Игра | The Game [1997] -=BDRip (AVC) by 0ptimus=-
Дата кодирования : UTC 2013-02-09 12:15:25
Программа кодирования : mkvmerge v6.0.0 ('Coming Up For Air') built on Jan 20 2013 09:52:00
Библиотека кодирования : libebml v1.3.0 + libmatroska v1.4.0

Видео
Идентификатор : 1
Формат : AVC
Формат/Информация : Advanced Video Codec
Профиль формата : High@L4.1
Параметр CABAC формата : Да
Параметр ReFrames формата : 9 кадров
Идентификатор кодека : V_MPEG4/ISO/AVC
Продолжительность : 2 ч. 8 м.
Битрейт : 2517 Кбит/сек
Ширина : 1024 пикселя
Высота : 436 пикселей
Соотношение сторон : 2,35:1
Режим частоты кадров : Постоянный
Частота кадров : 23,976 кадра/сек
Цветовое пространство : YUV
Субдискретизация насыщенности : 4:2:0
Битовая глубина : 8 бит
Тип развёртки : Прогрессивная
Бит/(Пиксели*Кадры) : 0.235
Размер потока : 2,20 Гбайт (75%)
Заголовок : Rip by 0ptimus
Библиотека кодирования : x264 core 129 r2245 bc13772
Настройки программы : cabac=1 / ref=9 / deblock=1:-3:-3 / analyse=0x3:0x113 / me=umh / subme=11 / psy=1 / psy_rd=1.00:0.20 / mixed_ref=1 / me_range=32 / chroma_me=1 / trellis=2 / 8x8dct=1 / cqm=0 / deadzone=21,11 / fast_pskip=0 / chroma_qp_offset=-3 / threads=4 / lookahead_threads=1 / sliced_threads=0 / nr=0 / decimate=0 / interlaced=0 / bluray_compat=0 / constrained_intra=0 / bframes=10 / b_pyramid=2 / b_adapt=2 / b_bias=0 / direct=3 / weightb=1 / open_gop=0 / weightp=2 / keyint=240 / keyint_min=23 / scenecut=40 / intra_refresh=0 / rc_lookahead=40 / rc=2pass / mbtree=0 / bitrate=2517 / ratetol=1.0 / qcomp=0.60 / qpmin=0 / qpmax=69 / qpstep=4 / cplxblur=20.0 / qblur=0.5 / vbv_maxrate=50000 / vbv_bufsize=50000 / nal_hrd=none / ip_ratio=1.40 / pb_ratio=1.30 / aq=1:1.00
Язык : English
Default : Да
Forced : Да

Аудио #1
Идентификатор : 2
Формат : AC-3
Формат/Информация : Audio Coding 3
Расширение режима : CM (complete main)
Параметр Endianness формата : Big
Идентификатор кодека : A_AC3
Продолжительность : 2 ч. 8 м.
Вид битрейта : Постоянный
Битрейт : 384 Кбит/сек
Каналы : 6 каналов
Расположение каналов : Front: L C R, Side: L R, LFE
Частота : 48,0 КГц
Битовая глубина : 16 бит
Метод сжатия : С потерями
Размер потока : 353 Мбайт (12%)
Заголовок : Дублированный
Язык : Russian
Default : Да
Forced : Да

Аудио #2
Идентификатор : 3
Формат : AC-3
Формат/Информация : Audio Coding 3
Расширение режима : CM (complete main)
Параметр Endianness формата : Big
Идентификатор кодека : A_AC3
Продолжительность : 2 ч. 8 м.
Вид битрейта : Постоянный
Битрейт : 384 Кбит/сек
Каналы : 6 каналов
Расположение каналов : Front: L C R, Side: L R, LFE
Частота : 48,0 КГц
Битовая глубина : 16 бит
Метод сжатия : С потерями
Размер потока : 353 Мбайт (12%)
Заголовок : Многоголосый закадровый [Позитив-Мультимедиа]
Язык : Russian
Default : Нет
Forced : Нет

Текст #1
Идентификатор : 4
Формат : UTF-8
Идентификатор кодека : S_TEXT/UTF8
Идентификатор кодека/Информация : UTF-8 Plain Text
Язык : Russian
Default : Нет
Forced : Нет

Текст #2
Идентификатор : 5
Формат : UTF-8
Идентификатор кодека : S_TEXT/UTF8
Идентификатор кодека/Информация : UTF-8 Plain Text
Язык : English
Default : Нет
Forced : Нет

Меню
00:00:00.000 : :Opening Logos
00:02:37.782 : :Happy Birthday
00:09:13.094 : :Memories
00:13:26.722 : :Initial Contact Crs
00:20:37.903 : :Let the Game Begin
00:30:32.664 : :The Briefcase
00:37:03.638 : :Accidents Happen
00:43:27.313 : :Mysterious Woman
00:53:41.176 : :Housekeeping
00:58:56.699 : :Frustration
01:04:41.752 : :It's A Game
01:12:34.224 : :Panic
01:18:40.757 : :Endless Pursuit
01:24:25.602 : :Escape
01:33:40.740 : :Buried in Mexico
01:42:08.455 : :Help From a Friend
01:46:38.225 : :Make the Connection
01:52:17.772 : :Happy Birthday
02:03:28.234 : :End Credits

x264 [info]: frame I:1592 Avg QP:15.33 size: 61693
x264 [info]: frame P:35521 Avg QP:17.74 size: 24382
x264 [info]: frame B:147943 Avg QP:19.15 size: 9882
Релиз от: 0ptimus



Скачать Игра.The.Game.(Дэвид.Финчер).[1997.триллер.приключения.детектив.BDRip-AVC].[Dub]+[MVO]x3+[DVO]+[AVO]x2.torrent без регистрации
Золото ЗОЛОТАЯ РАЗДАЧА! СКАЧАННОЕ НЕ ЗАСЧИТЫВАЕТСЯ! Золото
Дата: Зарегистрирован   [ Тип: внутренний ] Как тут cкачать?
MAGNET ссылка
MAGNET ссылка


Скачать .torrent

24 KB

Статус: проверено DHT
Скачан: торрент - 170 раз, раздача полностью - 297 раз
Размер: 4,68 GB
Оценка:  5 (Голосов: 1)
Поблагодарили: 5
Поделиться ссылкой на эту раздачу с друзьями:
В контактеFacebookОдноклассникиTwitterLivejournalМой МирLiveinternet
 

 
Показать сообщения:    


Вы не можете начинать темы
Вы не можете отвечать на сообщения
Вы не можете редактировать свои сообщения
Вы не можете удалять свои сообщения
Вы не можете голосовать в опросах
Вы не можете прикреплять файлы к сообщениям
Вы можете скачивать файлы