Loading...
Error

Скачать Великолепная семерка / The Magnificent Seven (Джон Стёрджес) [1960, приключения, вестерн, драма, BDRip] [Dub] торрент без регистрации

 
Статистика раздачи
Размер:  766 MB   |    Скачан:  126 раз
Сидов:  1  [  0 KB/s  ]  
 
Автор Сообщение

Marsianka

[] 

Информация о фильме
Название: Великолепная семерка
Оригинальное название: The Magnificent Seven
Год выхода: 1960
Жанр: приключения, вестерн, драма
Режиссер: Джон Стёрджес / John Sturges
В ролях: Юл Бриннер, Эли Уоллах, Стив МакКуин, Чарльз Бронсон, Роберт Вон, Хорст Буххольц, Джеймс Коберн, Брэд Декстер, Росенда Монтерос, Владимир Соколов

О фильме:
В маленькой деревушке крестьяне годами страдают от бесчинств местных бандитов. Их главарь Калвера держит в страхе всю округу, мучая ее жителей постоянными поборами и наказаниями. И однажды крестьяне решают нанять себе защитников семерых вооруженных всадников во главе с бритоголовым Крисом.
Великолепная семерка быстро наводит порядок, но Калвейре все же удается бежать. И тогда поимка злодея и его соратников становится делом чести великолепной семерки.




Страна: США
Продолжительность: 02:08:06
Перевод: Профессиональный (дублированный)

Файл
Кодек: XviD
Качество: BDRip
Видео: 672x288 (2.35:1), 23.976 fps, 699 Kbps, 0.151 Bits/(Pixel*Frame)
Звук: MP3, 48 KHz, 128 Kbps, 2 channels
General
Complete name : D:Velikolepnaja.semerka.1960.BDRip.XviD.mp3.766mb.avi
Format : AVI
Format/Info : Audio Video Interleave
File size : 766 MiB
Duration : 2h 8mn
Overall bit rate : 836 Kbps
Writing application : VirtualDubMod 1.5.10.2 (build 2540/release)
Writing library : VirtualDubMod build 2540/release

Video
ID : 0
Format : MPEG-4 Visual
Format profile : Advanced Simple@L5
Format settings, BVOP : 1
Format settings, QPel : No
Format settings, GMC : No warppoints
Format settings, Matrix : Custom
Codec ID : XVID
Codec ID/Hint : XviD
Duration : 2h 8mn
Bit rate : 699 Kbps
Width : 672 pixels
Height : 288 pixels
Display aspect ratio : 2.35:1
Frame rate : 23.976 fps
Color space : YUV
Chroma subsampling : 4:2:0
Bit depth : 8 bits
Scan type : Progressive
Compression mode : Lossy
Bits/(Pixel*Frame) : 0.151
Stream size : 641 MiB (84%)
Writing library : XviD 1.2.1 (UTC 2008-12-04)

Audio
ID : 1
Format : MPEG Audio
Format version : Version 1
Format profile : Layer 3
Mode : Joint stereo
Codec ID : 55
Codec ID/Hint : MP3
Duration : 2h 8mn
Bit rate mode : Constant
Bit rate : 128 Kbps
Channel(s) : 2 channels
Sampling rate : 48.0 KHz
Compression mode : Lossy
Stream size : 117 MiB (15%)
Alignment : Aligned on interleaves
Interleave, duration : 42 ms (1.00 video frame)
Interleave, preload duration : 504 ms



Скачать Великолепная.семерка.The.Magnificent.Seven.(Джон.Стёрджес).[1960.приключения.вестерн.драма.BDRip].[Dub].torrent без регистрации
Золото ЗОЛОТАЯ РАЗДАЧА! СКАЧАННОЕ НЕ ЗАСЧИТЫВАЕТСЯ! Золото
Дата: Зарегистрирован   [ Тип: внутренний ] Как тут cкачать?
MAGNET ссылка
MAGNET ссылка


Скачать .torrent

16 KB

Статус: проверено DHT
Скачан: торрент - 126 раз, раздача полностью - 62 раз
Размер: 766 MB
Оценка:  - (Голосов: 0)
Поблагодарили: 1
Поделиться ссылкой на эту раздачу с друзьями:
В контактеFacebookОдноклассникиTwitterLivejournalМой МирLiveinternet
 

 
Показать сообщения:    


Вы не можете начинать темы
Вы не можете отвечать на сообщения
Вы не можете редактировать свои сообщения
Вы не можете удалять свои сообщения
Вы не можете голосовать в опросах
Вы не можете прикреплять файлы к сообщениям
Вы можете скачивать файлы