Loading...
Error

Скачать Мыслить как преступник: Поведение подозреваемого / Criminal Minds: Suspect Behavior (01x01) (Эдвард Аллен Бернеро, Эндрю Бернштейн, Стивен Крегг) [2011, драма, криминал, детектив, HDTVRip] торрент без регистрации

 
Статистика раздачи
Размер:  349 MB   |    Скачан:  3367 раз
Сидов:  1  [  0 KB/s  ]  
 
Автор Сообщение

МихаНЕзатор

[] 

Год выпуска: 2011
Страна: США
Жанр: Драма, криминал, детектив
Продолжительность: 00:43:09
Перевод: любительский двухголосый закадровый
Русские субтитры: нет
Режиссёр: Эдвард Аллен Бернеро, Эндрю Бернштейн, Стивен Крегг

В ролях: Форест Уитакер, Бо Гаррет, Джанин Гарофало, Майкл Келли, Мэтт Райан, Кирстен Вангснесс

Описание: Драма об элитной команде агентов подразделения по поведенческому анализу ФБР, которая использует нетрадиционные методы расследования и агрессивную тактику, чтобы ловить самых гнусных преступников Америки. Глава подразделения, особый агент Сэм Купер умственно и физически энергичный лидер, который не боится рисковать своей карьерой. Купер, который старается избегать политической бюрократии, сам выбрал профайлеров для команды: бывшего служащего спецслужб Британии Мика Роусона, уверенного в себе и красивого снайпера, настроенного на искоренение зла; Джона [Пророкаk Симса, вооруженного уличной мудростью и дзен-спокойствием бывшего преступника, который хочет замолить грехи прошлого; и Джину ЛаСалль, жесткого агента с тонким чутьем. Эта группа оперативников ФБР тверда в своих убеждениях и неуклонно исполняет свою миссию привлечь к ответственности самых опасных преступников страны.



Сэмпл: http://multi-up.com/438466

Качество: HDTVRip
Формат: AVI
Видео кодек: XviD
Аудио кодек: MP3
Видео: 624x352 (1.77:1), 23.976 fps, XviD build 50 ~991 kbps avg, 0.19 bit/pixel
Аудио: 48 kHz, MPEG Layer 3, 2 ch, ~128.00 kbps avg

Format : AVI
Format/Info : Audio Video Interleave
File size : 349 MiB
Duration : 43mn 9s
Overall bit rate : 1 130 Kbps
Writing application : transcode-1.0.6
Writing library : VirtualDub build 31536/release

Video
ID : 0
Format : MPEG-4 Visual
Format profile : Advanced Simple@L5
Format settings, BVOP : Yes
Format settings, QPel : No
Format settings, GMC : No warppoints
Format settings, Matrix : Default (H.263)
Codec ID : XVID
Codec ID/Hint : XviD
Duration : 43mn 9s
Bit rate : 992 Kbps
Width : 624 pixels
Height : 352 pixels
Display aspect ratio : 16:9
Frame rate : 23.976 fps
Color space : YUV
Chroma subsampling : 4:2:0
Bit depth : 8 bits
Scan type : Progressive
Compression mode : Lossy
Bits/(Pixel*Frame) : 0.188
Stream size : 306 MiB (88%)
Writing library : XviD 1.2.1 (UTC 2008-12-04)

Audio
ID : 1
Format : MPEG Audio
Format version : Version 1
Format profile : Layer 3
Mode : Joint stereo
Mode extension : MS Stereo
Codec ID : 55
Codec ID/Hint : MP3
Duration : 43mn 9s
Bit rate mode : Constant
Bit rate : 128 Kbps
Channel(s) : 2 channels
Sampling rate : 48.0 KHz
Compression mode : Lossy
Stream size : 39.5 MiB (11%)
Alignment : Split accross interleaves
Interleave, duration : 42 ms (1.00 video frame)
Interleave, preload duration : 500 ms



Скачать Мыслить.как.преступник.Поведение.подозреваемого.Criminal.Minds.Suspect.Behavior.(01x01).(Эдвард.Аллен.Бернеро.Эндрю.Бернштейн.Стивен.Крегг).[2011.драма.криминал.детектив.HDTVRip].torrent без регистрации
Золото ЗОЛОТАЯ РАЗДАЧА! СКАЧАННОЕ НЕ ЗАСЧИТЫВАЕТСЯ! Золото
Дата: Зарегистрирован   [ Тип: внутренний ] Как тут cкачать?
MAGNET ссылка
MAGNET ссылка


Скачать .torrent

14 KB

Статус: проверено DHT
Скачан: торрент - 3367 раз, раздача полностью - 6 раз
Размер: 349 MB
Оценка:  5 (Голосов: 1)
Поблагодарили: 0
Поделиться ссылкой на эту раздачу с друзьями:
В контактеFacebookОдноклассникиTwitterLivejournalМой МирLiveinternet
 

 
Показать сообщения:    


Вы не можете начинать темы
Вы не можете отвечать на сообщения
Вы не можете редактировать свои сообщения
Вы не можете удалять свои сообщения
Вы не можете голосовать в опросах
Вы не можете прикреплять файлы к сообщениям
Вы можете скачивать файлы