Loading...
Error

Скачать Адвокат / Counsellor at Law (Уильям Уайлер / William Wyler) [1933, драма, DVDRip] [AVO] (А. Карповский) торрент без регистрации

 
Статистика раздачи
Размер:  744 MB   |    Скачан:  117 раз
Сидов:  1  [  0 KB/s  ]  
 
Автор Сообщение

leon030982

[] 

Адвокат / Counsellor at Law


Год выпуска: 1933
Страна: США
Жанр: драма
Продолжительность: 01:21:53
Перевод: Авторский (одноголосый закадровый)[А. Карповский]
Русские субтитры: нет

Режиссер: Уильям Уайлер / William Wyler

В ролях: Джон Бэрримор / John Barrymore, Биби Дэниэлс / Bebe Daniels, Дорис Кенион / Doris Kenyon, Изабель Джуэлл / Isabel Jewell, Мелвин Дуглас / Melvyn Douglas, Онслоу Стивенс / Onslow Stevens, Тельма Тодд / Thelma Todd, Клара Лангснер / Clara Langsner, Винсент Шерман / Vincent Sherman

Описание: Экранизация пьесы Элмера Райса "Адвокат". Успешному нью-йоркскому адвокату Джорджу Саймону угрожает скандал и лишение адвокатского звания. Когда-то он создал для своего подзащитного фиктивное алиби. Его враг узнает об этом и собирается поднять вопрос перед Ассоциацией юристов. Саймон пытается защитить свою репутацию. Один из лучших американских фильмов 1930-х г.г. и одна из лучших киноролей Джона Бэрримора, наряду с "Гранд-отелем", "Двадцатым веком" и "Обедом в восемь". Прекрасная игра актеров, остроумные диалоги и захватывающая история. Ранний звуковой фильм знаменитого режиссера Уильяма Уайлера, позднее снявшего всеми любимые "Римские каникулы" и "Как украсть миллион".

Качество: DVDRip
Формат: AVI
Видео кодек: XviD
Аудио кодек: МР3
Видео: 640x480 (1.33:1), 23.976 fps, XviD build 65 ~1132 kbps avg, 0.15 bit/pixel
Аудио: 48 kHz, MPEG Layer 3, 2 ch, ~128.00 kbps avg
General
Complete name : H:\003 Мои раздачи\Адвокат 745\advokat_745_[torrents.ru]_by_bm11.avi
Format : AVI
Format/Info : Audio Video Interleave
File size : 744 MiB
Duration : 1h 21mn
Overall bit rate : 1 270 Kbps
Director : bm11
Writing application : VirtualDubMod 1.5.10.2 (build 2540/release)
Video
ID : 0
Format : MPEG-4 Visual
Format profile : Advanced Simple@L5
Format settings, BVOP : Yes
Format settings, QPel : No
Format settings, GMC : No warppoints
Format settings, Matrix : Custom
Codec ID : XVID
Codec ID/Hint : XviD
Duration : 1h 21mn
Bit rate : 1 132 Kbps
Width : 640 pixels
Height : 480 pixels
Display aspect ratio : 4:3
Frame rate : 23.976 fps
Color space : YUV
Chroma subsampling : 4:2:0
Bit depth : 8 bits
Scan type : Progressive
Bits/(Pixel*Frame) : 0.154
Stream size : 663 MiB (89%)
Writing library : XviD 65
Audio
ID : 1
Format : MPEG Audio
Format version : Version 1
Format profile : Layer 3
Mode : Joint stereo
Mode extension : MS Stereo
Codec ID : 55
Codec ID/Hint : MP3
Duration : 1h 21mn
Bit rate mode : Constant
Bit rate : 128 Kbps
Channel(s) : 2 channels
Sampling rate : 48.0 KHz
Stream size : 75.0 MiB (10%)
Alignment : Aligned on interleaves
Interleave, duration : 42 ms (1.00 video frame)
Interleave, preload duration : 504 ms




Скачать Адвокат.Counsellor.at.Law.(Уильям.Уайлер.William.Wyler).[1933.драма.DVDRip].[AVO].(А.Карповский).torrent без регистрации
Золото ЗОЛОТАЯ РАЗДАЧА! СКАЧАННОЕ НЕ ЗАСЧИТЫВАЕТСЯ! Золото
Дата: Зарегистрирован   [ Тип: внутренний ] Как тут cкачать?
MAGNET ссылка
MAGNET ссылка


Скачать .torrent

15 KB

Статус: проверено DHT
Скачан: торрент - 117 раз, раздача полностью - 3 раз
Размер: 744 MB
Оценка:  - (Голосов: 0)
Поблагодарили: 0
Поделиться ссылкой на эту раздачу с друзьями:
В контактеFacebookОдноклассникиTwitterLivejournalМой МирLiveinternet
 

 
Показать сообщения:    


Вы не можете начинать темы
Вы не можете отвечать на сообщения
Вы не можете редактировать свои сообщения
Вы не можете удалять свои сообщения
Вы не можете голосовать в опросах
Вы не можете прикреплять файлы к сообщениям
Вы можете скачивать файлы