Loading...
Error

Скачать Сукияки Вестерн Джанго / Sukiyaki Western Django (Такаши Миике) [2007, боевик, вестерн, BDRip-AVC] [DVO]+[AVO] торрент без регистрации

 
Статистика раздачи
Размер:  3,37 GB   |    Скачан:  113 раз
Сидов:  1  [  0 KB/s  ]  
 
Автор Сообщение

Marsianka

[] 

Информация о фильме
Название: Сукияки Вестерн Джанго
Оригинальное название: Sukiyaki Western Django
Год выхода: 2007
Жанр: боевик, вестерн
Режиссер: Такаши Миике
В ролях: Хидеаки Ито, Масанобу Андо, Коити Сато, Каори Момои, Юсукэ Исейа, Рэндзи Исибаси, Ёсино Кимура, Квентин Тарантино, Такааки Исибаси, Теруюки Кагава, Таики Кобаяси, Тошиюки Нишида, Шун Огури, Масато Сакаи, Хидеаки Сато, Кристиан Стормс, Ёдзи Танака, Йошиюки Ямагути

О фильме:
Через несколько сот лет после печально знаменитой битвы в заливе Данноура (1185) в далекой японской горной деревушке нарастает напряжение. Одетая в белое банда Гэндзи (из клана Тайра) и одетая в красное банда Хэйкэ (из клана Минамото) вступили в жестокое противостояние, порожденное слухами о спрятанном золоте. Когда в деревне появляется безымянный странник, обремененный темным прошлым, но мастерски владеющий искусством стрельбы, и Гэндзи, и Хэйкэ задают себе вопрос, на чью сторону он встанет. Битва за власть, предательство, похоть и любовь переплетаются, пропитывая землю кровью. Историческая война между кланами вновь обретает жизнь в формах «спагетти-вестерна».



Страна: Япония, Dentsu Productions Ltd., Geneon Entertainment K.K., Sedic International Inc., Sony Pictures Entertainment (Japan), Sukiyaki Western Django Film Partners, Toei Co. Ltd., TV Asahi
Продолжительность: 02:00:34
Перевод: Профессиональный двухголосый, авторский одноголосый
Дата релиза: 11.02.2013

Файл
Кодек: H.264
Качество: BDRip-AVC
Видео: MPEG-4 AVC, 2654 Кбит/с, 1024x442
Звук:
Аудио 1: Русский (AC3, 6 ch, 448 Кбит/с) - Двухголосый закадровый, П.Гланц и И.Королева
Аудио 2: Русский (AC3, 6 ch, 448 Кбит/с) - Одноголосый закадровый, Ю.Сербин
Аудио 3: Английский (AC3, 6 ch, 448 Кбит/с)
Общее
Уникальный идентификатор : 243647111449344212961575102046318753411 (0xB74CBA0E4754593E844971B25751F683)
Полное имя : D:1Sukijaki.Vestern.Dzhango.2007.x264.BDRip.(AVC).ExKinoRay.mkv
Формат : Matroska
Версия формата : Version 2
Размер файла : 3,37 Гбайт
Продолжительность : 2 ч. 0 м.
Общий поток : 3998 Кбит/сек
Название фильма : Sukijaki.Vestern.Dzhango.2007.x264.BDRip.(AVC).ExKinoRay
Дата кодирования : UTC 2013-02-10 20:40:45
Программа кодирования : mkvmerge v4.0.0 ('The Stars were mine') сборка от Jun 6 2010 16:18:42
Библиотека кодирования : libebml v1.0.0 + libmatroska v1.0.0

Видео
Идентификатор : 1
Формат : AVC
Формат/Информация : Advanced Video Codec
Профиль формата : High@L4.1
Параметр CABAC формата : Да
Параметр ReFrames формата : 8 кадров
Идентификатор кодека : V_MPEG4/ISO/AVC
Продолжительность : 2 ч. 0 м.
Битрейт : 2654 Кбит/сек
Ширина : 1024 пикселя
Высота : 442 пикселя
Соотношение сторон : 2,35:1
Частота кадров : 23,976 кадра/сек
Цветовое пространство : YUV
Субдискретизация насыщенности : 4:2:0
Битовая глубина : 8 бит
Тип развёртки : Прогрессивная
Бит/(Пиксели*Кадры) : 0.245
Размер потока : 2,17 Гбайт (64%)
Заголовок : Rip by Enigma-Vladislav71
Библиотека кодирования : x264 core 129 r2245 bc13772
Настройки программы : cabac=1 / ref=8 / deblock=1:-2:-2 / analyse=0x3:0x133 / me=umh / subme=11 / psy=1 / psy_rd=1.00:0.00 / mixed_ref=1 / me_range=48 / chroma_me=1 / trellis=2 / 8x8dct=1 / cqm=0 / deadzone=21,11 / fast_pskip=0 / chroma_qp_offset=-2 / threads=3 / lookahead_threads=1 / sliced_threads=0 / nr=0 / decimate=0 / interlaced=0 / bluray_compat=0 / constrained_intra=0 / bframes=8 / b_pyramid=2 / b_adapt=2 / b_bias=0 / direct=3 / weightb=1 / open_gop=0 / weightp=2 / keyint=240 / keyint_min=23 / scenecut=40 / intra_refresh=0 / rc_lookahead=40 / rc=2pass / mbtree=1 / bitrate=2654 / ratetol=1.0 / qcomp=0.60 / qpmin=10 / qpmax=51 / qpstep=4 / cplxblur=20.0 / qblur=0.5 / ip_ratio=1.40 / aq=2:1.00
Язык : English

Аудио #1
Идентификатор : 2
Формат : AC-3
Формат/Информация : Audio Coding 3
Расширение режима : CM (complete main)
Идентификатор кодека : A_AC3
Продолжительность : 2 ч. 0 м.
Вид битрейта : Постоянный
Битрейт : 448 Кбит/сек
Каналы : 6 каналов
Расположение каналов : Front: L C R, Side: L R, LFE
Частота : 48,0 КГц
Битовая глубина : 16 бит
Метод сжатия : С потерями
Размер потока : 386 Мбайт (11%)
Заголовок : Двухголосый закадровый, П.Гланц и И.Королева
Язык : Russian

Аудио #2
Идентификатор : 3
Формат : AC-3
Формат/Информация : Audio Coding 3
Расширение режима : CM (complete main)
Идентификатор кодека : A_AC3
Продолжительность : 2 ч. 0 м.
Вид битрейта : Постоянный
Битрейт : 448 Кбит/сек
Каналы : 6 каналов
Расположение каналов : Front: L C R, Side: L R, LFE
Частота : 48,0 КГц
Битовая глубина : 16 бит
Метод сжатия : С потерями
Размер потока : 386 Мбайт (11%)
Заголовок : Одноголосый закадровый, Ю.Сербин
Язык : Russian

Аудио #3
Идентификатор : 4
Формат : AC-3
Формат/Информация : Audio Coding 3
Расширение режима : CM (complete main)
Идентификатор кодека : A_AC3
Продолжительность : 2 ч. 0 м.
Вид битрейта : Постоянный
Битрейт : 448 Кбит/сек
Каналы : 6 каналов
Расположение каналов : Front: L C R, Side: L R, LFE
Частота : 48,0 КГц
Битовая глубина : 16 бит
Метод сжатия : С потерями
Размер потока : 386 Мбайт (11%)
Язык : English

Меню
00:00:00.000 : en:Chapter 01
00:12:02.887 : en:Chapter 02
00:22:53.997 : en:Chapter 03
00:31:34.225 : en:Chapter 04
00:38:19.297 : en:Chapter 05
00:48:57.100 : en:Chapter 06
00:58:09.110 : en:Chapter 07
01:04:01.212 : en:Chapter 08
01:15:13.383 : en:Chapter 09
01:24:49.751 : en:Chapter 10
01:35:02.530 : en:Chapter 11
01:51:36.564 : en:Chapter 12
Семпл Релиз от:

Авторы релиза:



Скачать Сукияки.Вестерн.Джанго.Sukiyaki.Western.Django.(Такаши.Миике).[2007.боевик.вестерн.BDRip-AVC].[DVO]+[AVO].torrent без регистрации
Золото ЗОЛОТАЯ РАЗДАЧА! СКАЧАННОЕ НЕ ЗАСЧИТЫВАЕТСЯ! Золото
Дата: Зарегистрирован   [ Тип: внутренний ] Как тут cкачать?
MAGNET ссылка
MAGNET ссылка


Скачать .torrent

17 KB

Статус: проверено DHT
Скачан: торрент - 113 раз, раздача полностью - 9 раз
Размер: 3,37 GB
Оценка:  5 (Голосов: 1)
Поблагодарили: 1
Поделиться ссылкой на эту раздачу с друзьями:
В контактеFacebookОдноклассникиTwitterLivejournalМой МирLiveinternet
 

 
Показать сообщения:    


Вы не можете начинать темы
Вы не можете отвечать на сообщения
Вы не можете редактировать свои сообщения
Вы не можете удалять свои сообщения
Вы не можете голосовать в опросах
Вы не можете прикреплять файлы к сообщениям
Вы можете скачивать файлы