Loading...
Error

Скачать Демоны / Demoni / Demons (Ламберто Бава) [1985, ужасы, BDRip] [MVO] торрент без регистрации

 
Статистика раздачи
Размер:  746 MB   |    Скачан:  120 раз
Сидов:  1  [  0 KB/s  ]  
 
Автор Сообщение

Marsianka

[] 

Информация о фильме
Название: Демоны
Оригинальное название: Demoni / Demons
Год выхода: 1985
Жанр: ужасы
Режиссер: Ламберто Бава / Lamberto Bava
В ролях: Урбано Барберини, Наташа Хови, Карл Синни, Фьоре Ардженто, Паола Коццо, Фабиола Толедо, Николетта Элми, Stelio Candelli, Николь Тессьер, Джеретта Джеретта...

О фильме:
Молодая девушка Шерил вместе с подругой получает в метро приглашение от странного человека в серебряной маске на премьерный показ нового фильма ужасов о демонах, нашествие которых якобы предсказал Нострадамус.
Сеанс должен состоятся в одном из только что отремонтированных берлинских кинотеатров под названием «Метрополь». В его фойе одна из посетительниц видит манекен в серебряной маске демона и шутки ради примеряет эту маску, чтобы сфотографироваться в ней. Поранившись обо что-то острое внутри маски, девушка с недовольным видом идет в зал. Происходящее на экране странно напоминает то, что в действительности произошло перед сеансом та же маска и кто-то из героев поранился о нее Как раз на моменте, когда молодой человек на экране читает отрывок из книги Нострадамуса, повествующий о том, что всякий, надевший маску, превратится в демона, поранившейся посетительнице становится плохо, и она идет в женскую комнату лишь для того чтобы пророчество Нострадамуса сбылось
Очень скоро и остальные зрители кинотеатра убедятся в том, что демоны бывают не только на экране, и Шерил вместе с ее друзьями по несчастью предстоит кровавая схватка с полчищами порождений ада


зрителям, достигшим 16 лет

Страна: Италия
Продолжительность: 01:28:36
Перевод: Профессиональный (многоголосый закадровый) СОЮЗ Видео

Файл
Кодек: XviD
Качество: BDRip
Видео: 688x416 (1.654), 23.976 fps, 1 040 Kbps, 0.152 Bits/(Pixel*Frame)
Звук: MP3, 48 KHz, 128 Kbps, 2 channels
General
Complete name : D:Demony.1985.P.BDRip.XviD.mp3.746mb.avi
Format : AVI
Format/Info : Audio Video Interleave
File size : 746 MiB
Duration : 1h 28mn
Overall bit rate : 1 178 Kbps
Writing application : VirtualDubMod 1.5.10.2 (build 2540/release)
Writing library : VirtualDubMod build 2540/release

Video
ID : 0
Format : MPEG-4 Visual
Format profile : Advanced Simple@L5
Format settings, BVOP : 1
Format settings, QPel : No
Format settings, GMC : No warppoints
Format settings, Matrix : Default (MPEG)
Codec ID : XVID
Codec ID/Hint : XviD
Duration : 1h 28mn
Bit rate : 1 040 Kbps
Width : 688 pixels
Height : 416 pixels
Display aspect ratio : 1.654
Frame rate : 23.976 fps
Color space : YUV
Chroma subsampling : 4:2:0
Bit depth : 8 bits
Scan type : Progressive
Compression mode : Lossy
Bits/(Pixel*Frame) : 0.152
Stream size : 659 MiB (88%)
Writing library : XviD 1.2.1 (UTC 2008-12-04)

Audio
ID : 1
Format : MPEG Audio
Format version : Version 1
Format profile : Layer 3
Mode : Joint stereo
Mode extension : MS Stereo
Codec ID : 55
Codec ID/Hint : MP3
Duration : 1h 28mn
Bit rate mode : Constant
Bit rate : 128 Kbps
Channel(s) : 2 channels
Sampling rate : 48.0 KHz
Compression mode : Lossy
Stream size : 81.1 MiB (11%)
Alignment : Aligned on interleaves
Interleave, duration : 42 ms (1.00 video frame)
Interleave, preload duration : 504 ms



Скачать Демоны.Demoni.Demons.(Ламберто.Бава).[1985.ужасы.BDRip].[MVO].torrent без регистрации
Золото ЗОЛОТАЯ РАЗДАЧА! СКАЧАННОЕ НЕ ЗАСЧИТЫВАЕТСЯ! Золото
Дата: Зарегистрирован   [ Тип: внутренний ] Как тут cкачать?
MAGNET ссылка
MAGNET ссылка


Скачать .torrent

15 KB

Статус: проверено DHT
Скачан: торрент - 120 раз, раздача полностью - 10 раз
Размер: 746 MB
Оценка:  - (Голосов: 0)
Поблагодарили: 2
Поделиться ссылкой на эту раздачу с друзьями:
В контактеFacebookОдноклассникиTwitterLivejournalМой МирLiveinternet
 

 
Показать сообщения:    


Вы не можете начинать темы
Вы не можете отвечать на сообщения
Вы не можете редактировать свои сообщения
Вы не можете удалять свои сообщения
Вы не можете голосовать в опросах
Вы не можете прикреплять файлы к сообщениям
Вы можете скачивать файлы