Loading...
Error

Скачать Всемогущие Джонсоны / The Almighty Johnsons (сезон 02) (Мюррэй Кин, Саймон Беннетт) [2010, драма, фантастика, HDTVRip] [720p] [MVO (DreamRecords)] торрент без регистрации

 
Статистика раздачи
Размер:  15,32 GB   |    Скачан:  129 раз

Полного источника не было: 28 минут

 
Автор Сообщение

МихаНЕзатор

[] 

Название: Всемогущие Джонсоны
Оригинальное название: The Almighty Johnsons
Год выпуска: 2010
Страна: Новая Зеландия
Жанр: драма, фантастика
Продолжительность: 02 х ~ 00:45:00
Перевод: Любительский (многоголосый закадровый) - DreamRecords
Субтитры: Нет
Режиссер: Мюррэй Кин, Саймон Беннетт

В ролях: Эмметт Скилтон ,Тимоти Бальм, Дин ОГорман, Джаред Тернер, Бен Баррингтон, Хейден Фрост, Киша Касл-Хьюз, Ферн Сазерленд, Рэйчел Нэш, Ив Гордон
ии, которым случилось стать живыми воплощениями норвежских богов. У них даже есть свои божественные суперсилы. Может, правда, их силы не настолько велики. Пока нет, но вскоре все может измениться

Описание: Новая тихоокеанская комедия-драма о 4 братьях, выросших в Новой Зеландии, которым случилось стать живыми воплощениями норвежских богов. У них даже есть свои божественные суперсилы. Может, правда, их силы не настолько велики. Пока нет, но вскоре все может измениться.

Перевод: Julia Anderson
Озвучка: Kenum, Regecat, ИринаЮС, Pro-Snip
Работа со звуком: LeX
Рип видео: LeX

Релиз от:

Качество: HDTVRip 720p
Формат: МКV
Видео: H.264, 1280x720, 25 fps, 3 400 Kbps,0.148 bit/pixel
Аудио rus: AC3, 48Hz, 2 ch, 224 Kbps
Аудио Eng: AC3, 48Hz, 2 ch, 224 Kbps

25.05.2013 г. торент обновлён, добавлена 14 серия, сезон полностью!
Format : Matroska
Format version : Version 2
File size : 1.18 GiB
Duration : 43mn 58s
Overall bit rate : 3 850 Kbps
Encoded date : UTC 2013-02-05 00:21:40
Writing application : mkvmerge v5.8.0 ('No Sleep / Pillow') built on Sep 2 2012 15:37:04
Writing library : libebml v1.2.3 + libmatroska v1.3.0

Video
ID : 1
Format : AVC
Format/Info : Advanced Video Codec
Format profile : High@L4.1
Format settings, CABAC : Yes
Format settings, ReFrames : 4 frames
Codec ID : V_MPEG4/ISO/AVC
Duration : 43mn 58s
Bit rate : 3 400 Kbps
Width : 1 280 pixels
Height : 720 pixels
Display aspect ratio : 16:9
Frame rate mode : Constant
Frame rate : 25.000 fps
Color space : YUV
Chroma subsampling : 4:2:0
Bit depth : 8 bits
Scan type : Progressive
Bits/(Pixel*Frame) : 0.148
Stream size : 1.02 GiB (86%)
Writing library : x264 core 120 r2164 da19765
Encoding settings : cabac=1 / ref=3 / deblock=1:0:0 / analyse=0x3:0x113 / me=hex / subme=7 / psy=1 / psy_rd=1.00:0.00 / mixed_ref=1 / me_range=16 / chroma_me=1 / trellis=1 / 8x8dct=1 / cqm=0 / deadzone=21,11 / fast_pskip=1 / chroma_qp_offset=-2 / threads=12 / sliced_threads=0 / nr=0 / decimate=1 / interlaced=0 / bluray_compat=0 / constrained_intra=0 / bframes=3 / b_pyramid=2 / b_adapt=1 / b_bias=0 / direct=1 / weightb=1 / open_gop=0 / weightp=2 / keyint=250 / keyint_min=25 / scenecut=40 / intra_refresh=0 / rc_lookahead=40 / rc=2pass / mbtree=1 / bitrate=3400 / ratetol=1.0 / qcomp=0.60 / qpmin=10 / qpmax=51 / qpstep=4 / cplxblur=20.0 / qblur=0.5 / ip_ratio=1.40 / aq=1:1.00
Default : Yes
Forced : No

Audio #1
ID : 2
Format : AC-3
Format/Info : Audio Coding 3
Mode extension : CM (complete main)
Format settings, Endianness : Big
Codec ID : A_AC3
Duration : 43mn 58s
Bit rate mode : Constant
Bit rate : 224 Kbps
Channel(s) : 2 channels
Channel positions : Front: L R
Sampling rate : 48.0 KHz
Bit depth : 16 bits
Compression mode : Lossy
Stream size : 70.4 MiB (6%)
Title : DreamRecords
Language : Russian
Default : Yes
Forced : No

Audio #2
ID : 3
Format : AC-3
Format/Info : Audio Coding 3
Mode extension : CM (complete main)
Format settings, Endianness : Big
Codec ID : A_AC3
Duration : 43mn 58s
Bit rate mode : Constant
Bit rate : 224 Kbps
Channel(s) : 2 channels
Channel positions : Front: L R
Sampling rate : 48.0 KHz
Bit depth : 16 bits
Compression mode : Lossy
Stream size : 70.4 MiB (6%)
Title : Original
Language : English
Default : No
Forced : No

Text
ID : 4
Format : UTF-8
Codec ID : S_TEXT/UTF8
Codec ID/Info : UTF-8 Plain Text
Title : Rus Sub
Language : Russian
Default : No
Forced : No



Скачать Всемогущие.Джонсоны.The.Almighty.Johnsons.(сезон.02).(Мюррэй.Кин.Саймон.Беннетт).[2010.драма.фантастика.HDTVRip].[720p].[MVO.(DreamRecords)].torrent без регистрации
Золото ЗОЛОТАЯ РАЗДАЧА! СКАЧАННОЕ НЕ ЗАСЧИТЫВАЕТСЯ! Золото
Дата: Зарегистрирован   [ Тип: внутренний ] Как тут cкачать?
MAGNET ссылка
MAGNET ссылка


Скачать .torrent

40 KB

Статус: проверено DHT
Скачан: торрент - 129 раз, раздача полностью - 19 раз
Размер: 15,32 GB
Оценка:  - (Голосов: 0)
Поблагодарили: 2
Поделиться ссылкой на эту раздачу с друзьями:
В контактеFacebookОдноклассникиTwitterLivejournalМой МирLiveinternet
 

 

МихаНЕзатор

[] 

Раздача обновлена.
 
Показать сообщения:    


Вы не можете начинать темы
Вы не можете отвечать на сообщения
Вы не можете редактировать свои сообщения
Вы не можете удалять свои сообщения
Вы не можете голосовать в опросах
Вы не можете прикреплять файлы к сообщениям
Вы можете скачивать файлы