Loading...
Error

Скачать На зов скорби / Les Revenants (сезон 01) ( Fabrice Gobert) [2012, триллер, BDRip] [MVO (Agatha Studdio)]+[Fre] торрент без регистрации

 
Статистика раздачи
Размер:  8,11 GB   |    Скачан:  5075 раз
Сидов:  2  [  0 KB/s  ]  
 
Автор Сообщение

МихаНЕзатор

[] 



На зов скорби / Les Revenants
(англоязычное название Rebound)


Год выпуска: 2012
Страна: Франция
Жанр: драма, триллер
Продолжительность: 8 х ~59 мин
Перевод: профессиональный многоголосый закадровый (Agatha Studdio)
Режиссёры: Фабрис Гобер, Фридерик Мерму

В ролях: Фредерик Пьеро, Самир Гесми, Гийом Гуи, Жан-Франсуа Сивадье, Аликс Пуасон, Дженна Тиам, Анн Косиньи, Клотильда Эсме, Селин Саллетт, Грегори Гадебуа, Пьер Перрье, Яра Пиларц, Сванн Намботин, Ана Жирардо...

Описание: В небольшой альпийской деревушке, растерянные люди пытаются вернуться домой. Они ещё не знают, что мертвы уже несколько лет. Вернувшиеся полны решимости вернуть себе место в мире живых. Но, похоже, воскресли не только мирные жители. Их возврат совпадает с серией жестоких убийств, похожих на дело рук серийного убийцы из прошлого. И на этом нарушения в естественном ходе вещей не заканчиваются...

Релиз:

Перевод: Vipere
Редактор перевода: Agatha
Роли озвучивали:Александр Дасевич
Анастасия Флигина
Татьяна Манетина
Сергей Пономарёв

Качество: BDRip
Формат: AVI
Видео: XviD, 720x400 (1.80:1), 25 fps, ~2000 kbps
Аудио Rus: 48 kHz, AC3 Dolby Digital, 3/2 (L,C,R,l,r) + LFE ch, ~384.00 kbps
Аудио Fre: 48 kHz, AC3 Dolby Digital, 3/2 (L,C,R,l,r) + LFE ch, ~384.00 kbps
Субтитры: отсутствуют

АНОНСЫ ПОПУЛЯРНЫХ РАЗДАЧ


Торрент обновлён, улучшен видеоряд, добавлена 8-я серия!
Format : AVI
Format/Info : Audio Video Interleave
File size : 1.07 GiB
Duration : 54mn 48s
Overall bit rate : 2 784 Kbps
Writing application : VirtualDubMod 1.5.10.2 (build 2542/release)
Writing library : VirtualDubMod build 2542/release
Video
ID : 0
Format : MPEG-4 Visual
Format profile : Advanced Simple@L5
Format settings, BVOP : 1
Format settings, QPel : No
Format settings, GMC : No warppoints
Format settings, Matrix : Default (MPEG)
Codec ID : XVID
Codec ID/Hint : XviD
Duration : 54mn 48s
Bit rate : 2 002 Kbps
Width : 720 pixels
Height : 400 pixels
Display aspect ratio : 16:9
Frame rate : 25.000 fps
Color space : YUV
Chroma subsampling : 4:2:0
Bit depth : 8 bits
Scan type : Progressive
Compression mode : Lossy
Bits/(Pixel*Frame) : 0.278
Stream size : 785 MiB (72%)
Writing library : XviD 1.2.1 (UTC 2008-12-04)
Audio #1
ID : 1
Format : AC-3
Format/Info : Audio Coding 3
Mode extension : CM (complete main)
Format settings, Endianness : Big
Codec ID : 2000
Duration : 54mn 48s
Bit rate mode : Constant
Bit rate : 384 Kbps
Channel(s) : 6 channels
Channel positions : Front: L C R, Side: L R, LFE
Sampling rate : 48.0 KHz
Bit depth : 16 bits
Compression mode : Lossy
Stream size : 151 MiB (14%)
Alignment : Split accross interleaves
Interleave, duration : 40 ms (1.00 video frame)
Interleave, preload duration : 500 ms
Title : Russian
Audio #2
ID : 2
Format : AC-3
Format/Info : Audio Coding 3
Mode extension : CM (complete main)
Format settings, Endianness : Big
Codec ID : 2000
Duration : 54mn 48s
Bit rate mode : Constant
Bit rate : 384 Kbps
Channel(s) : 6 channels
Channel positions : Front: L C R, Side: L R, LFE
Sampling rate : 48.0 KHz
Bit depth : 16 bits
Compression mode : Lossy
Stream size : 151 MiB (14%)
Alignment : Split accross interleaves
Interleave, duration : 40 ms (1.00 video frame)
Interleave, preload duration : 500 ms
Title : French



Скачать На.зов.скорби.Les.Revenants.(сезон.01).(.Fabrice.Gobert).[2012.триллер.BDRip].[MVO.(Agatha.Studdio)]+[Fre].torrent без регистрации
Золото ЗОЛОТАЯ РАЗДАЧА! СКАЧАННОЕ НЕ ЗАСЧИТЫВАЕТСЯ! Золото
Дата: Зарегистрирован   [ Тип: внутренний ] Как тут cкачать?
MAGNET ссылка
MAGNET ссылка


Скачать .torrent

82 KB

Статус: проверено DHT
Скачан: торрент - 5075 раз, раздача полностью - 13 раз
Размер: 8,11 GB
Оценка:  - (Голосов: 0)
Поблагодарили: 4
Поделиться ссылкой на эту раздачу с друзьями:
В контактеFacebookОдноклассникиTwitterLivejournalМой МирLiveinternet
 

 
Показать сообщения:    


Вы не можете начинать темы
Вы не можете отвечать на сообщения
Вы не можете редактировать свои сообщения
Вы не можете удалять свои сообщения
Вы не можете голосовать в опросах
Вы не можете прикреплять файлы к сообщениям
Вы можете скачивать файлы