Loading...
Error

Скачать Люди под лестницей / The People Under the Stairs (Уэс Крэйвен) [1991, ужасы, триллер, WEB-DLRip] [MVO] торрент без регистрации

 
Статистика раздачи
Размер:  1,46 GB   |    Скачан:  108 раз

Полного источника не было: 21 минута

 
Автор Сообщение

Marsianka

[] 



Информация о фильме
Название: Люди под лестницей
Оригинальное название: The People Under the Stairs
Год выхода: 1991
Жанр: ужасы, триллер
Режиссер: Уэс Крэйвен / Wes Craven
В ролях: Брэндон Квинтин Адамс, Эверет МакГилл, Уэнди Роби, А.Дж. Ленджер, Винг Реймз, Шон Уэйлен, Билл Коббс, Келли Джо Минтер, Джереми Робертс, Конни Мари Бразелтон...

О фильме:
В каждом городе есть дом, о котором рассказывают ужасные вещи. Взрослые говорят об этом месте шепотом, а все соседские ребятишки обходят его стороной. От таких мрачных домов веет сыростью и смертью. И вряд ли найдется смельчак, который, даже на спор отважится приблизиться к страшному месту в сумраке ночи.
Но случилось так, что однажды обыкновенный десятилетний мальчик вступил в жуткое жилище. Тот кошмар, который пришлось испытать маленькому герою, невозможно описать словами.




Страна: США
Продолжительность: 01:41:57
Перевод: Профессиональный (многоголосный, закадровый)

Файл
Кодек: Xvid
Качество: WEB-DLRip
Видео: 704x384, 1849 Kbps, 23.976 fps
Звук: AC3, 2 ch, 192.00 kbps, 48.0 khz
General
Complete name : The.People.Under.the.Stairs.1991.WEB-DLRip.avi
Format : AVI
Format/Info : Audio Video Interleave
File size : 1.46 GiB
Duration : 1h 41mn
Overall bit rate : 2 050 Kbps
Writing application : VirtualDubMod 1.5.10.3 | www.virtualdub-fr.org || (build 2550/release)
Writing library : VirtualDubMod build 2550/release

Video
ID : 0
Format : MPEG-4 Visual
Format profile : Advanced Simple@L5
Format settings, BVOP : 1
Format settings, QPel : No
Format settings, GMC : No warppoints
Format settings, Matrix : Custom
Codec ID : XVID
Codec ID/Hint : XviD
Duration : 1h 41mn
Bit rate : 1 849 Kbps
Width : 704 pixels
Height : 384 pixels
Display aspect ratio : 1.85:1
Frame rate : 23.976 fps
Color space : YUV
Chroma subsampling : 4:2:0
Bit depth : 8 bits
Scan type : Progressive
Compression mode : Lossy
Bits/(Pixel*Frame) : 0.285
Stream size : 1.32 GiB (90%)
Writing library : XviD 65

Audio
ID : 1
Format : AC-3
Format/Info : Audio Coding 3
Mode extension : CM (complete main)
Format settings, Endianness : Big
Codec ID : 2000
Duration : 1h 41mn
Bit rate mode : Constant
Bit rate : 192 Kbps
Channel(s) : 2 channels
Channel positions : Front: L R
Sampling rate : 48.0 KHz
Bit depth : 16 bits
Compression mode : Lossy
Stream size : 140 MiB (9%)
Alignment : Split accross interleaves
Interleave, duration : 42 ms (1.00 video frame)
Interleave, preload duration : 500 ms
Релиз от: Leon-masl



Скачать Люди.под.лестницей.The.People.Under.the.Stairs.(Уэс.Крэйвен).[1991.ужасы.триллер.WEB-DLRip].[MVO].torrent без регистрации
Золото ЗОЛОТАЯ РАЗДАЧА! СКАЧАННОЕ НЕ ЗАСЧИТЫВАЕТСЯ! Золото
Дата: Зарегистрирован   [ Тип: внутренний ] Как тут cкачать?
MAGNET ссылка
MAGNET ссылка


Скачать .torrent

15 KB

Статус: проверено DHT
Скачан: торрент - 108 раз, раздача полностью - 17 раз
Размер: 1,46 GB
Оценка:  - (Голосов: 0)
Поблагодарили: 1
Поделиться ссылкой на эту раздачу с друзьями:
В контактеFacebookОдноклассникиTwitterLivejournalМой МирLiveinternet
 

 
Показать сообщения:    


Вы не можете начинать темы
Вы не можете отвечать на сообщения
Вы не можете редактировать свои сообщения
Вы не можете удалять свои сообщения
Вы не можете голосовать в опросах
Вы не можете прикреплять файлы к сообщениям
Вы можете скачивать файлы