Loading...
Error

Скачать Блудливая Калифорния / Californication (сезон 06) (Том Капинос) [2013, комедия, драма, HDTVRip] [720p] [MVO (NovaFilm)] торрент без регистрации

 
Статистика раздачи
Размер:  12,88 GB   |    Скачан:  2495 раз
Сидов:  1  [  0 KB/s  ]  
 
Автор Сообщение

МихаНЕзатор

[] 

Название: Блудливая Калифорния
Оригинальное название: Californication
Год выпуска: 2013
Страна: США
Жанр: комедия, драма
Продолжительность: ~ 00:30:00
Перевод: Профессиональный (многоголосый, закадровый) [NovaFilm]
Субтитры: Нет
Режиссер: Том Капинос

В ролях: Дэвид Духовны, Наташа МакЭлхоун, Мадлен Мартин, Эван Хэндлер, Памела Адлон, Мадлен Зима, Каллум Кейт Ренни, Рэйчел Майнер, Карла Галло, Ева Амурри
Описание: Приключени Хэнка Муди продолжаются! По сюжету, Хэнк будет работать на Бродвее, где будут ставить мюзикл, по его книге «Бог ненавидит всех нас». В нескольких эпизодах появится Тим Минчин. Ему досталась роль Аттикуса Фетча. Его ввели в сценарий специально для того, чтобы он выступил автором саундтрека для Бродвейского мюзикла Crazy Little Thing Called Love ( «Эта сумасшедшая штучка по имени любовь»), основанного на одноименном фильме по роману Хэнка Муди. Аттикус попытается уговорить Хэнка сочинить сценарий для мюзикла, обещая ему, что вместе они превратят его в рок-оперу. Также в этом сезоне нас ждут флешбеки.

Качество: HDTVRip 720p
Формат: MKV
Видео кодек: H.264
Аудио кодек: AC3
Видео: 1280x720 (1.78:1), 23.976 fps, ~4500 kbps avg, 0,20 bit/pixel
Аудио (RU): 48 kHz, Dolby Digital 5.1 @ 384 kbps [NovaFilm]
Аудио (EN): 48 kHz, Dolby Digital 5.1 @ 384 kbps [Original]



Релиз:

22.04.2013 г. торент обновлён, добавлена 10-12 серия!

[13.01.2013] 01. «The Unforgiven» (рус. «Непрощённый»)
[20.01.2013] 02. «Quitters» (рус. «Рецидивисты»)
[27.01.2013] 03. «Dead Rock Stars» (рус. «Мёртвые рок-звёзды»)
[10.02.2013] 04. «Hell Bent for Leather» (рус. «Чертовски быстро»)
[17.02.2013] 05. «Rock and a Hard Place» (рус. «Молот и наковальня»)
[24.02.2013] 06. «In the Clouds» (рус. «В облаках»)
[03.03.2013] 07. «The Dope Show» (рус. «Наркотическое шоу»)
[10.03.2013] 08. «Everybody's a Fucking Critic» (рус. «Вокруг одни критики»)
[17.03.2013] 09. «Mad Dogs & Englishmen» (рус. «Бешеные псы и англичане»)
[17.03.2013] 09. «Mad Dogs & Englishmen» (рус. «Бешеные псы и англичане»)
[24.03.2013] 10. «Blind Faith» (рус. «Слепая вера»)
[31.03.2013] 11. «The Abby» (рус. «Эбби»)
[07.04.2013] 12. «I'll Lay My Monsters Down» (рус. «Я успокою своих монстров»)
Общее
Уникальный идентификатор : 175375788825431014633853380659170235110 (0x83F025F86D4673DBB975C937F20BD2E6)
Полное имя : californication.s06e01.hdtv.720p.rus.eng.novafilm.tv.mkv
Формат : Matroska
Версия формата : Version 2
Размер файла : 1,07 Гбайт
Продолжительность : 29 м.
Общий поток : 5277 Кбит/сек
Дата кодирования : UTC 2013-01-16 20:25:07
Программа кодирования : mkvmerge v4.0.0 ('The Stars were mine') сборка от Jun 6 2010 16:18:42
Библиотека кодирования : libebml v1.0.0 libmatroska v1.0.0
Видео
Идентификатор : 1
Формат : AVC
Формат/Информация : Advanced Video Codec
Профиль формата : High@L4.1
Параметр CABAC формата : Да
Параметр ReFrames формата : 6 кадров
Идентификатор кодека : V_MPEG4/ISO/AVC
Продолжительность : 29 м.
Битрейт : 4509 Кбит/сек
Ширина : 1280 пикселей
Высота : 720 пикселей
Соотношение сторон : 16:9
Режим частоты кадров : Постоянный
Частота кадров : 23,976 кадра/сек
Цветовое пространство : YUV
Субдискретизация насыщенности : 4:2:0
Битовая глубина : 8 бит
Тип развёртки : Прогрессивная
Бит/(Пиксели*Кадры) : 0.204
Размер потока : 917 Мбайт (83%)
Заголовок : Californication - Season 6, Episode 1: The Unforgiven ("Непрощенный")
Библиотека кодирования : x264 core 125 r2200 999b753
Настройки программы : cabac=1 / ref=6 / deblock=1:-3:-3 / analyse=0x3:0x133 / me=umh / subme=6 / psy=1 / psy_rd=1.00:0.00 / mixed_ref=1 / me_range=24 / chroma_me=1 / trellis=2 / 8x8dct=1 / cqm=0 / deadzone=21,11 / fast_pskip=1 / chroma_qp_offset=-4 / threads=3 / lookahead_threads=1 / sliced_threads=0 / nr=0 / decimate=1 / interlaced=0 / bluray_compat=0 / constrained_intra=0 / bframes=3 / b_pyramid=0 / b_adapt=2 / b_bias=0 / direct=3 / weightb=1 / open_gop=0 / weightp=2 / keyint=240 / keyint_min=23 / scenecut=40 / intra_refresh=0 / rc_lookahead=40 / rc=2pass / mbtree=1 / bitrate=4509 / ratetol=1.0 / qcomp=0.60 / qpmin=10 / qpmax=51 / qpstep=4 / cplxblur=20.0 / qblur=0.5 / ip_ratio=1.40 / aq=1:1.00
Язык : English
Default : Да
Forced : Нет
Аудио #1
Идентификатор : 2
Формат : AC-3
Формат/Информация : Audio Coding 3
Расширение режима : CM (complete main)
Параметр Endianness формата : Big
Идентификатор кодека : A_AC3
Продолжительность : 29 м.
Вид битрейта : Постоянный
Битрейт : 384 Кбит/сек
Каналы : 6 каналов
Расположение каналов : Front: L C R, Side: L R, LFE
Частота : 48,0 КГц
Битовая глубина : 16 бит
Метод сжатия : С потерями
Размер потока : 80,0 Мбайт (7%)
Заголовок : Dolby Digital 5.1 @ 384 kbps
Язык : Russian
Default : Да
Forced : Нет
Аудио #2
Идентификатор : 3
Формат : AC-3
Формат/Информация : Audio Coding 3
Расширение режима : CM (complete main)
Параметр Endianness формата : Big
Идентификатор кодека : A_AC3
Продолжительность : 29 м.
Вид битрейта : Постоянный
Битрейт : 384 Кбит/сек
Каналы : 6 каналов
Расположение каналов : Front: L C R, Side: L R, LFE
Частота : 48,0 КГц
Битовая глубина : 16 бит
Метод сжатия : С потерями
Задержка видео : 26 мс.
Размер потока : 80,0 Мбайт (7%)
Заголовок : Dolby Digital 5.1 @ 384 kbps
Язык : English
Default : Нет
Forced : Нет
Текст
Идентификатор : 4
Формат : ASS
Идентификатор кодека : S_TEXT/ASS
Идентификатор кодека/Информация : Advanced Sub Station Alpha
Метод сжатия : Без потерь
Заголовок : Forced
Язык : Russian
Default : Да
Forced : Да
Внимание! Раздача ведётся путём добавления новых серий; при каждом добавлении создётся новый торрент. Чтобы начать докачку новой серии, пользователям необходимо сделать следующее:
(1) остановить скачивание,
(2) удалить старый торрент у себя из клиента (старые серии удалять не надо),
(3) скачать новый торрент и запустить его у себя в клиенте вместо старого, при этом указать клиенту путь в старую папку куда и должно происходить скачивание новых серий.
Ваш клиент при этом должен произвести хеширование (проверку) старой папки (если не производит сам - помогите ему сделать это), и будет докачивать только те серии которых у вас ещё нет. Старые серии при этом не удаляются, а продолжают раздаваться!
Eсли вы уже удалили старые серии, то предотвратить повторную закачку старых серий можно, отжав галочку в соответсвующих местах при запуске нового торрента. По возможности, желательно не удалять старые серии как можно дольше чтобы релизёр не столько продолжал раздавать старые серии, а смог сконцентрироваться на новых.



Скачать Блудливая.Калифорния.Californication.(сезон.06).(Том.Капинос).[2013.комедия.драма.HDTVRip].[720p].[MVO.(NovaFilm)].torrent без регистрации
Золото ЗОЛОТАЯ РАЗДАЧА! СКАЧАННОЕ НЕ ЗАСЧИТЫВАЕТСЯ! Золото
Дата: Зарегистрирован   [ Тип: внутренний ] Как тут cкачать?
MAGNET ссылка
MAGNET ссылка


Скачать .torrent

66 KB

Статус: проверено DHT
Скачан: торрент - 2495 раз, раздача полностью - 343 раз
Размер: 12,88 GB
Оценка:  5 (Голосов: 3)
Поблагодарили: 4
Поделиться ссылкой на эту раздачу с друзьями:
В контактеFacebookОдноклассникиTwitterLivejournalМой МирLiveinternet
 

 

МихаНЕзатор

[] 

Раздача обновлена.
 
Показать сообщения:    


Вы не можете начинать темы
Вы не можете отвечать на сообщения
Вы не можете редактировать свои сообщения
Вы не можете удалять свои сообщения
Вы не можете голосовать в опросах
Вы не можете прикреплять файлы к сообщениям
Вы можете скачивать файлы