Loading...
Error

Скачать Солнцестояние / Solstice (Дэниэл Мирик) [2008, ужасы, триллер, драма, детектив, HDRip-AVC] [Dub]+[Sub] торрент без регистрации

 
Статистика раздачи
Размер:  2,18 GB   |    Скачан:  133 раза
Сидов:  1  [  0 KB/s  ]  
 
Автор Сообщение

Marsianka

[] 

Информация о фильме
Название: Солнцестояние
Оригинальное название: Solstice
Год выхода: 2008
Жанр: ужасы, триллер, драма, детектив
Режиссер: Дэниэл Мирик
В ролях: Элизабет Арнуа, Шон Эшмор, Хилари Бертон, Аманда Сайфред, Тайлер Хехлин, Мэтью ОЛири, Р. Ли Эрми, Лиза Арнольд, Лайл Брокато, Дэвид Дальгрен, Дженна Хилдебранд, Марк Краснофф, Диджей Бурас, Джейкоб Хэмил, Клифф Джонсон, Дженнифер Рамирез, Майкл Сэбалски, Гари Майкл Смит

О фильме:
После того, как Меган при таинственных обстоятельствах теряет свою сестру-близняшку, она с друзьями отправляется в родительский дом у озера, чтобы немного отвлечься и понаблюдать за летним солнцестоянием, традиционным местным явлением. Говорят, что во время солнцестояния живым легче всего входить в контакт с умершими. Заинтригованная сей новостью, Меган воодушевляется снова услышать голос сестры. Экспериментируя с местными заклинаниями, она вызывает дух совершенно другой девушки, в смерти которой, скорее всего, виновата её сестра



Страна: США
Студия: Endgame Entertainment, Solstice Productions
Продолжительность: 01:27:03
Перевод: Дублированный

Файл
Кодек: Н264
Качество: HDRip-AVC
Видео: MPEG-4 AVC, 2688 Кбит/с, 1024x432, 25.000 кадр/с
Звук: Русский, английский (AC3, 6 ch, 448 Кбит/с)
Субтитры: Русские (srt)

Семпл

Полное имя : Solncestoyanie.2008.x264.HDRip.(AVC).Marvel.mkv
Формат : Matroska
Версия формата : Version 1
Размер файла : 2,18 Гбайт
Продолжительность : 1 ч. 27 м.
Общий поток : 3586 Кбит/сек
Название фильма : Solstice (2008) -=Marvel=-
Дата кодирования : UTC 2013-02-14 05:25:01
Программа кодирования : mkvmerge v2.1.0 ('Another Place To Fall') built on Aug 19 2007 13:40:07
Библиотека кодирования : libebml v0.7.7 + libmatroska v0.8.1

Видео
Идентификатор : 1
Формат : AVC
Формат/Информация : Advanced Video Codec
Профиль формата : High@L4.1
Параметр CABAC формата : Да
Параметр ReFrames формата : 7 кадров
Идентификатор кодека : V_MPEG4/ISO/AVC
Продолжительность : 1 ч. 27 м.
Битрейт : 2688 Кбит/сек
Ширина : 1024 пикселя
Высота : 432 пикселя
Соотношение сторон : 2,40:1
Частота кадров : 25,000 кадров/сек
Цветовое пространство : YUV
Субдискретизация насыщенности : 4:2:0
Битовая глубина : 8 бит
Тип развёртки : Прогрессивная
Бит/(Пиксели*Кадры) : 0.243
Размер потока : 1,59 Гбайт (73%)
Заголовок : Solstice (2008)
Библиотека кодирования : x264 core 92 r1510 33d382a
Настройки программы : cabac=1 / ref=7 / deblock=1:-3:-3 / analyse=0x3:0x133 / me=umh / subme=10 / psy=1 / psy_rd=1.00:0.10 / mixed_ref=1 / me_range=64 / chroma_me=1 / trellis=2 / 8x8dct=1 / cqm=0 / deadzone=21,11 / fast_pskip=0 / chroma_qp_offset=-3 / threads=1 / sliced_threads=0 / nr=0 / decimate=1 / interlaced=0 / constrained_intra=0 / bframes=3 / b_pyramid=2 / b_adapt=2 / b_bias=0 / direct=3 / wpredb=1 / wpredp=2 / keyint=250 / keyint_min=25 / scenecut=40 / intra_refresh=0 / rc_lookahead=50 / rc=2pass / mbtree=1 / bitrate=2688 / ratetol=1.0 / qcomp=0.60 / qpmin=10 / qpmax=51 / qpstep=4 / cplxblur=20.0 / qblur=0.5 / ip_ratio=1.40 / aq=1:1.00
Язык : English
Default : Да
Forced : Нет

Аудио #1
Идентификатор : 2
Формат : AC-3
Формат/Информация : Audio Coding 3
Расширение режима : CM (complete main)
Параметр Endianness формата : Big
Идентификатор кодека : A_AC3
Продолжительность : 1 ч. 27 м.
Вид битрейта : Постоянный
Битрейт : 448 Кбит/сек
Каналы : 6 каналов
Расположение каналов : Front: L C R, Side: L R, LFE
Частота : 48,0 КГц
Битовая глубина : 16 бит
Метод сжатия : С потерями
Размер потока : 279 Мбайт (12%)
Заголовок : Dub
Язык : Russian
Default : Да
Forced : Нет

Аудио #2
Идентификатор : 3
Формат : AC-3
Формат/Информация : Audio Coding 3
Расширение режима : CM (complete main)
Параметр Endianness формата : Big
Идентификатор кодека : A_AC3
Продолжительность : 1 ч. 27 м.
Вид битрейта : Постоянный
Битрейт : 448 Кбит/сек
Каналы : 6 каналов
Расположение каналов : Front: L C R, Side: L R, LFE
Частота : 48,0 КГц
Битовая глубина : 16 бит
Метод сжатия : С потерями
Размер потока : 279 Мбайт (12%)
Заголовок : English
Язык : English
Default : Нет
Forced : Нет

Текст
Идентификатор : 4
Формат : UTF-8
Идентификатор кодека : S_TEXT/UTF8
Идентификатор кодека/Информация : UTF-8 Plain Text
Заголовок : Russian srt
Язык : Russian
Default : Нет
Forced : Нет
Релиз от: Marvel



Скачать Солнцестояние.Solstice.(Дэниэл.Мирик).[2008.ужасы.триллер.драма.детектив.HDRip-AVC].[Dub]+[Sub].torrent без регистрации
Золото ЗОЛОТАЯ РАЗДАЧА! СКАЧАННОЕ НЕ ЗАСЧИТЫВАЕТСЯ! Золото
Дата: Зарегистрирован   [ Тип: внутренний ] Как тут cкачать?
MAGNET ссылка
MAGNET ссылка


Скачать .torrent

11 KB

Статус: проверено DHT
Скачан: торрент - 133 раз, раздача полностью - 126 раз
Размер: 2,18 GB
Оценка:  - (Голосов: 0)
Поблагодарили: 3
Поделиться ссылкой на эту раздачу с друзьями:
В контактеFacebookОдноклассникиTwitterLivejournalМой МирLiveinternet
 

 
Показать сообщения:    


Вы не можете начинать темы
Вы не можете отвечать на сообщения
Вы не можете редактировать свои сообщения
Вы не можете удалять свои сообщения
Вы не можете голосовать в опросах
Вы не можете прикреплять файлы к сообщениям
Вы можете скачивать файлы