Loading...
Error

Скачать Живая плоть / Carne tr™mula / Live Flesh (Педро Альмодовар) [1997, триллер, драма, мелодрама, HDRip] [DVO] торрент без регистрации

 
Статистика раздачи
Размер:  746 MB   |    Скачан:  112 раз
Сидов:  1  [  0 KB/s  ]  
 
Автор Сообщение

Marsianka

[] 

Информация о фильме
Название: Живая плоть
Оригинальное название: Carne tr™mula / Live Flesh
Год выхода: 1997
Жанр: триллер, драма, мелодрама
Режиссер: Педро Альмодовар / Pedro AlmodЈvar
В ролях: Хавьер Бардем, Франческа Нери, Либерто Рабаль, Анхела Молина, Хосе Санчо, Пенелопа Крус, Пилар Бардем, Алекс Ангуло, Мариола Фуэнтес, Яэль Бе

О фильме:
Фильм снят по одноименному роману популярной английской писательницы Рут Рэнделл. Главный герой картины, Виктор, из-за ссоры со своей подружкой Еленой, случайно ранит полицейского.
Через 4 года, проведенных в тюрьме он узнает, что тот самый полицейский стал известным баскетболистом, кумиром и героем зрителей с баснословными контрактами да еще и женился на его бывшей подружке Елене.




Страна: Франция, Испания
Продолжительность: 01:40:43
Перевод: Профессиональный (двухголосый закадровый) CP-Digital

Файл
Кодек: XviD
Качество: HDRip [BDRip 1080p]
Видео: 720x304 (2.35:1), 24 fps, 899 Kbps, 0.171 Bits/(Pixel*Frame)
Звук: MP3, 48 KHz, 128 Kbps, 2 channels

General
Complete name : D:Zhivaja.plot'.1997.HDRip.XviD.mp3.746mb.avi
Format : AVI
Format/Info : Audio Video Interleave
File size : 746 MiB
Duration : 1h 40mn
Overall bit rate : 1 036 Kbps
Writing application : VirtualDubMod 1.5.10.2 (build 2540/release)
Writing library : VirtualDubMod build 2540/release

Video
ID : 0
Format : MPEG-4 Visual
Format profile : Advanced Simple@L5
Format settings, BVOP : 1
Format settings, QPel : No
Format settings, GMC : No warppoints
Format settings, Matrix : Custom
Codec ID : XVID
Codec ID/Hint : XviD
Duration : 1h 40mn
Bit rate : 899 Kbps
Width : 720 pixels
Height : 304 pixels
Display aspect ratio : 2.35:1
Frame rate : 24.000 fps
Color space : YUV
Chroma subsampling : 4:2:0
Bit depth : 8 bits
Scan type : Progressive
Compression mode : Lossy
Bits/(Pixel*Frame) : 0.171
Stream size : 647 MiB (87%)
Writing library : XviD 1.2.1 (UTC 2008-12-04)

Audio
ID : 1
Format : MPEG Audio
Format version : Version 1
Format profile : Layer 3
Mode : Joint stereo
Codec ID : 55
Codec ID/Hint : MP3
Duration : 1h 40mn
Bit rate mode : Constant
Bit rate : 128 Kbps
Channel(s) : 2 channels
Sampling rate : 48.0 KHz
Compression mode : Lossy
Stream size : 92.2 MiB (12%)
Alignment : Aligned on interleaves
Interleave, duration : 42 ms (1.00 video frame)
Interleave, preload duration : 504 ms



Скачать Живая.плоть.Carne.tr™mula.Live.Flesh.(Педро.Альмодовар).[1997.триллер.драма.мелодрама.HDRip].[DVO].torrent без регистрации
Золото ЗОЛОТАЯ РАЗДАЧА! СКАЧАННОЕ НЕ ЗАСЧИТЫВАЕТСЯ! Золото
Дата: Зарегистрирован   [ Тип: внутренний ] Как тут cкачать?
MAGNET ссылка
MAGNET ссылка


Скачать .torrent

15 KB

Статус: проверено DHT
Скачан: торрент - 112 раз, раздача полностью - 4 раз
Размер: 746 MB
Оценка:  - (Голосов: 0)
Поблагодарили: 0
Поделиться ссылкой на эту раздачу с друзьями:
В контактеFacebookОдноклассникиTwitterLivejournalМой МирLiveinternet
 

 
Показать сообщения:    


Вы не можете начинать темы
Вы не можете отвечать на сообщения
Вы не можете редактировать свои сообщения
Вы не можете удалять свои сообщения
Вы не можете голосовать в опросах
Вы не можете прикреплять файлы к сообщениям
Вы можете скачивать файлы