Loading...
Error

Скачать Шалопай / Mischief (Мэл Дэмски) [1985, мелодрама, комедия, DVDRip-AVC] [MVO]+[Оригинал]+[Sub] торрент без регистрации

 
Статистика раздачи
Размер:  2,1 GB   |    Скачан:  110 раз
Сидов:  1  [  0 KB/s  ]  
 
Автор Сообщение

Marsianka

[] 

Страна: США
Жанр: мелодрама, комедия
Год выпуска: 1985
Продолжительность: 01:36:36
Перевод: Профессиональный (многоголосый, закадровый)[НТВ+] + Оригинальный
Субтитры: английские
Слоган: «The first time seems like the worst time, but it's the one time you'll never forget!»
Режиссер: Мэл Дэмски / Mel Damski
В ролях: Даг МакКиэн (Jonathan Bellah), Катрин Мэри Стюарт (Bunny Miller), Келли Престон (Marilyn McCauley), Крис Нэш (Gene Harbrough), Д.В. Браун (Kenny), Джейми Герц (Rosalie), Маргарет Блай (Claire Miller), Грэм Джарвис (Mr. Miller), Терри ОКуинн (Claude Harbrough), Даррен Юинг (Ted), Дэннис Л. ОКоннелл (T.J.), Боб МакГуайр (Mr. Hewitt)
Описание: Неудачи Джонатана в общении с девушками отступают, когда он в последнем классе школы знакомится с Джином. Поскольку Джин пользуется успехом у девушек, он решает преподать Джонатану несколько уроков по общению с прекрасным полом. Но Джин вообще-то предпочёл бы жить в любви и согласии только с одной девушкой - Банни.


MPAA: R - Лицам до 17 лет обязательно присутствие взрослого
Семпл
Качество: DVDRip
Контейнер: MKV

Видео: AVC, 720x464 @ 853x464 (16:9), 2403 kbps, 23.976 fps, 0.300 bpp
Аудио 1: русский / AC3 / 2.0 / 48 kHz / 256 kbps
Аудио 2: английский / AC3 / 5.1 / 48 kHz / 448 kbps
Навигация по главам: есть

General
Unique ID : 220377899098268110462208036440601531126 (0xA5CB3D4F92E6BDAA8BC05C76399C12F6)
Complete name : C:TorrentShalopaj.DVDRipAVC.mkv
Format : Matroska
Format version : Version 2
File size : 2.10 GiB
Duration : 1h 36mn
Overall bit rate : 3 108 Kbps
Movie name : = Шалопай / Mischief DVDRip by SC Kosmos =
Encoded date : UTC 2013-02-13 22:00:11
Writing application : mkvmerge v3.3.0 ('Language') gebaut am Mar 24 2010 14:59:24
Writing library : libebml v0.8.0 + libmatroska v0.9.0

Video
ID : 1
Format : AVC
Format/Info : Advanced Video Codec
Format profile : High@L4.1
Format settings, CABAC : Yes
Format settings, ReFrames : 12 frames
Codec ID : V_MPEG4/ISO/AVC
Duration : 1h 36mn
Bit rate : 2 403 Kbps
Width : 720 pixels
Height : 464 pixels
Display aspect ratio : 16:9
Original display aspect ratio : 16:9
Frame rate : 23.976 fps
Color space : YUV
Chroma subsampling : 4:2:0
Bit depth : 8 bits
Scan type : Progressive
Bits/(Pixel*Frame) : 0.300
Stream size : 1.58 GiB (75%)
Title : Шалопай / Mischief DVDRip by SC Kosmos
Writing library : x264 core 129 r2245 bc13772
Encoding settings : cabac=1 / ref=12 / deblock=1:-2:-2 / analyse=0x3:0x112 / me=umh / subme=11 / psy=1 / psy_rd=1.00:0.15 / mixed_ref=1 / me_range=32 / chroma_me=1 / trellis=2 / 8x8dct=1 / cqm=0 / deadzone=21,11 / fast_pskip=1 / chroma_qp_offset=-3 / threads=12 / lookahead_threads=2 / sliced_threads=0 / nr=0 / decimate=1 / interlaced=0 / bluray_compat=0 / constrained_intra=0 / bframes=8 / b_pyramid=2 / b_adapt=1 / b_bias=0 / direct=3 / weightb=1 / open_gop=0 / weightp=1 / keyint=240 / keyint_min=23 / scenecut=40 / intra_refresh=0 / rc=2pass / mbtree=0 / bitrate=2403 / ratetol=1.0 / qcomp=0.60 / qpmin=0 / qpmax=69 / qpstep=4 / cplxblur=20.0 / qblur=0.5 / ip_ratio=1.40 / pb_ratio=1.30 / aq=1:1.00 / zones=134820,138974,b=0.27
Language : English
Default : No
Forced : No

Audio #1
ID : 2
Format : AC-3
Format/Info : Audio Coding 3
Mode extension : CM (complete main)
Codec ID : A_AC3
Duration : 1h 36mn
Bit rate mode : Constant
Bit rate : 256 Kbps
Channel(s) : 2 channels
Channel positions : Front: L R
Sampling rate : 48.0 KHz
Bit depth : 16 bits
Compression mode : Lossy
Stream size : 177 MiB (8%)
Title : MVO (НТВ+)
Language : Russian
Default : Yes
Forced : No

Audio #2
ID : 3
Format : AC-3
Format/Info : Audio Coding 3
Mode extension : CM (complete main)
Codec ID : A_AC3
Duration : 1h 36mn
Bit rate mode : Constant
Bit rate : 448 Kbps
Channel(s) : 6 channels
Channel positions : Front: L C R, Side: L R, LFE
Sampling rate : 48.0 KHz
Bit depth : 16 bits
Compression mode : Lossy
Stream size : 310 MiB (14%)
Language : English
Default : No
Forced : No

Text
ID : 4
Format : UTF-8
Codec ID : S_TEXT/UTF8
Codec ID/Info : UTF-8 Plain Text
Language : English
Default : Yes
Forced : No

Menu
00:00:00.000 : en:Chapter 01
00:06:24.067 : en:Chapter 02
00:09:09.668 : en:Chapter 03
00:13:17.502 : en:Chapter 04
00:19:44.969 : en:Chapter 05
00:25:19.303 : en:Chapter 06
00:30:00.171 : en:Chapter 07
00:41:17.905 : en:Chapter 08
00:46:24.172 : en:Chapter 09
00:55:17.939 : en:Chapter 10
01:04:57.006 : en:Chapter 11
01:10:20.006 : en:Chapter 12
01:15:12.773 : en:Chapter 13
01:20:23.240 : en:Chapter 14
01:29:24.807 : en:Chapter 15
01:33:32.074 : en:Chapter 16




Скачать Шалопай.Mischief.(Мэл.Дэмски).[1985.мелодрама.комедия.DVDRip-AVC].[MVO]+[Оригинал]+[Sub].torrent без регистрации
Золото ЗОЛОТАЯ РАЗДАЧА! СКАЧАННОЕ НЕ ЗАСЧИТЫВАЕТСЯ! Золото
Дата: Зарегистрирован   [ Тип: внутренний ] Как тут cкачать?
MAGNET ссылка
MAGNET ссылка


Скачать .torrent

11 KB

Статус: проверено DHT
Скачан: торрент - 110 раз, раздача полностью - 12 раз
Размер: 2,1 GB
Оценка:  - (Голосов: 0)
Поблагодарили: 1
Поделиться ссылкой на эту раздачу с друзьями:
В контактеFacebookОдноклассникиTwitterLivejournalМой МирLiveinternet
 

 
Показать сообщения:    


Вы не можете начинать темы
Вы не можете отвечать на сообщения
Вы не можете редактировать свои сообщения
Вы не можете удалять свои сообщения
Вы не можете голосовать в опросах
Вы не можете прикреплять файлы к сообщениям
Вы можете скачивать файлы