Loading...
Error

Скачать Переговорщик / The Negotiator (1998) BDRip-AVC][Dub]+[AVO]+[Sub] торрент без регистрации

 
Статистика раздачи
Размер:  3,46 GB   |    Скачан:  108 раз
Сидов:  1  [  0 KB/s  ]  
 
Автор Сообщение

Marsianka

[] 

Информация о фильме
Название: Переговорщик
Оригинальное название: The Negotiator
Год выхода: 1998
Жанр: боевик, триллер, драма, криминал, детектив
Режиссер: Ф. Гэри Грей
В ролях: Сэмюэл Л. Джексон, Кевин Спейси, Дэвид Морс, Рон Рифкин, Джон Спенсер, Дж.Т. Уолш, Шаван Фэллон, Пол Джаматти, Реджина Тейлор, Брюс Битти, Майкл Кадлитц, Карлос Гомес, Тим Келлехер, Дин Норрис, Нестор Серрано, Даг Спинуцца

О фильме:
Переговорщик это полицейский, ведущий переговоры с преступниками или террористами, захватившими заложников. Герой картины Дэнни Роумэн один из лучших «переговорщиков» в Чикаго. Напарник и близкий друг Роумэна сообщает ему, что в Фонде помощи инвалидам, членом правления которого был Дэнни, расхищают деньги, а он знает, кто за этим стоит. Это Терренс Найбаум из отдела внутренних расследований. Друг назначил Дэнни встречу в парке, намереваясь сообщить ему полные данные, но, когда Дэнни пришел, тот уже был застрелен. На следующий день к нему с обыском приходит именно Найбаум. У Роумэна находят банковские документы на крупные суммы денег. Его обвиняют в убийстве друга. Понимая, что шансов доказать свою невиновность нет, Роумэн берет Найбаума и еще трех человек в заложники. Он не может доверять полицейским своего участка, так как знает, что среди них убийцы его напарника, и требует, чтобы в качестве переговорщика был приглашен специалист с другого участка. Сумеет ли Роумэн доказать свою невиновность?



Страна: Германия, США
Студия: Mandeville Films, Regency Enterprises, Taurus Film
Продолжительность: 02:19:34
Перевод: Дублированный, авторский (одноголосый закадровый)

Файл
Кодек: h.264
Качество: BDRip-AVC
Видео: MPEG-4 AVC, 1878 Кбит/с, 1024x426, 23.976 кадр/с
1: Русский (AC3, 6 ch, 384 Кбит/с) Дублированный
2: Русский (AC3, 6 ch, 384 Кбит/с) Авторский одноголосый [Андрей Гаврилов]
3: Русский (AC3, 6 ch, 448 Кбит/с) Авторский одноголосый [Юрий Живов]
4: Английский (AC3, 6 ch, 448 Кбит/с)

Субтитры: Русские, английские

Полное имя : Peregovorschik.1998.x264.BDRip.(AVC).0ptimus.mkv
Формат : Matroska
Версия формата : Version 4 / Version 2
Размер файла : 3,46 Гбайт
Продолжительность : 2 ч. 19 м.
Общий поток : 3545 Кбит/сек
Название фильма : Переговорщик | The Negotiator [1998] -=BDRip (AVC) by 0ptimus=-
Дата кодирования : UTC 2013-02-13 15:16:00
Программа кодирования : mkvmerge v6.0.0 ('Coming Up For Air') built on Jan 20 2013 09:52:00
Библиотека кодирования : libebml v1.3.0 + libmatroska v1.4.0

Видео
Идентификатор : 1
Формат : AVC
Формат/Информация : Advanced Video Codec
Профиль формата : High@L4.1
Параметр CABAC формата : Да
Параметр ReFrames формата : 9 кадров
Идентификатор кодека : V_MPEG4/ISO/AVC
Продолжительность : 2 ч. 19 м.
Битрейт : 1878 Кбит/сек
Ширина : 1024 пикселя
Высота : 426 пикселей
Соотношение сторон : 2,40:1
Режим частоты кадров : Постоянный
Частота кадров : 23,976 кадра/сек
Цветовое пространство : YUV
Субдискретизация насыщенности : 4:2:0
Битовая глубина : 8 бит
Тип развёртки : Прогрессивная
Бит/(Пиксели*Кадры) : 0.180
Размер потока : 1,76 Гбайт (51%)
Заголовок : Rip by 0ptimus
Библиотека кодирования : x264 core 129 r2245 bc13772
Настройки программы : cabac=1 / ref=9 / deblock=1:-3:-3 / analyse=0x3:0x113 / me=umh / subme=11 / psy=1 / psy_rd=1.00:0.20 / mixed_ref=1 / me_range=32 / chroma_me=1 / trellis=2 / 8x8dct=1 / cqm=0 / deadzone=21,11 / fast_pskip=0 / chroma_qp_offset=-3 / threads=4 / lookahead_threads=1 / sliced_threads=0 / nr=0 / decimate=0 / interlaced=0 / bluray_compat=0 / constrained_intra=0 / bframes=12 / b_pyramid=2 / b_adapt=2 / b_bias=0 / direct=3 / weightb=1 / open_gop=0 / weightp=2 / keyint=240 / keyint_min=23 / scenecut=40 / intra_refresh=0 / rc_lookahead=40 / rc=2pass / mbtree=0 / bitrate=1878 / ratetol=1.0 / qcomp=0.60 / qpmin=0 / qpmax=69 / qpstep=4 / cplxblur=20.0 / qblur=0.5 / vbv_maxrate=50000 / vbv_bufsize=50000 / nal_hrd=none / ip_ratio=1.40 / pb_ratio=1.30 / aq=1:1.00
Язык : English
Default : Да
Forced : Да

Аудио #1
Идентификатор : 2
Формат : AC-3
Формат/Информация : Audio Coding 3
Расширение режима : CM (complete main)
Параметр Endianness формата : Big
Идентификатор кодека : A_AC3
Продолжительность : 2 ч. 19 м.
Вид битрейта : Постоянный
Битрейт : 384 Кбит/сек
Каналы : 6 каналов
Расположение каналов : Front: L C R, Side: L R, LFE
Частота : 48,0 КГц
Битовая глубина : 16 бит
Метод сжатия : С потерями
Размер потока : 383 Мбайт (11%)
Заголовок : Дублированный
Язык : Russian
Default : Да
Forced : Да

Аудио #2
Идентификатор : 3
Формат : AC-3
Формат/Информация : Audio Coding 3
Расширение режима : CM (complete main)
Параметр Endianness формата : Big
Идентификатор кодека : A_AC3
Продолжительность : 2 ч. 19 м.
Вид битрейта : Постоянный
Битрейт : 384 Кбит/сек
Каналы : 6 каналов
Расположение каналов : Front: L C R, Side: L R, LFE
Частота : 48,0 КГц
Битовая глубина : 16 бит
Метод сжатия : С потерями
Размер потока : 383 Мбайт (11%)
Заголовок : Авторский [Андрей Гаврилов]
Язык : Russian
Default : Нет
Forced : Нет

Аудио #3
Идентификатор : 4
Формат : AC-3
Формат/Информация : Audio Coding 3
Расширение режима : CM (complete main)
Параметр Endianness формата : Big
Идентификатор кодека : A_AC3
Продолжительность : 2 ч. 19 м.
Вид битрейта : Постоянный
Битрейт : 448 Кбит/сек
Каналы : 6 каналов
Расположение каналов : Front: L C R, Side: L R, LFE
Частота : 48,0 КГц
Битовая глубина : 16 бит
Метод сжатия : С потерями
Размер потока : 447 Мбайт (13%)
Заголовок : Авторский [Юрий Живов]
Язык : Russian
Default : Нет
Forced : Нет

Аудио #4
Идентификатор : 5
Формат : AC-3
Формат/Информация : Audio Coding 3
Расширение режима : CM (complete main)
Параметр Endianness формата : Big
Идентификатор кодека : A_AC3
Продолжительность : 2 ч. 19 м.
Вид битрейта : Постоянный
Битрейт : 448 Кбит/сек
Каналы : 6 каналов
Расположение каналов : Front: L C R, Side: L R, LFE
Частота : 48,0 КГц
Битовая глубина : 16 бит
Метод сжатия : С потерями
Размер потока : 447 Мбайт (13%)
Язык : English
Default : Нет
Forced : Нет

Текст #1
Идентификатор : 6
Формат : UTF-8
Идентификатор кодека : S_TEXT/UTF8
Идентификатор кодека/Информация : UTF-8 Plain Text
Язык : Russian
Default : Нет
Forced : Нет

Текст #2
Идентификатор : 7
Формат : UTF-8
Идентификатор кодека : S_TEXT/UTF8
Идентификатор кодека/Информация : UTF-8 Plain Text
Язык : English
Default : Нет
Forced : Нет

Меню
00:00:00.000 : :Credits
00:02:32.151 : :Negotiating with Omar
00:06:42.568 : :Countdown
00:09:56.095 : :On the News...Again
00:12:10.521 : :Missing Money
00:15:04.528 : :Rendezvous with Nate
00:18:33.862 : :Surprise Discovery
00:23:52.639 : :Lost Star
00:26:27.168 : :Facing His Accusers
00:30:53.893 : :Not Going to Jail Today
00:34:28.983 : :Forces in Place
00:38:14.041 : :No Eyes, No Ears
00:42:33.676 : :The Man Danny Wants
00:46:05.137 : :Never Say No
00:50:02.582 : :Not Helping
00:53:30.582 : :Rules of Engagement
00:56:40.230 : :How Do You Know?
00:59:55.550 : :Courting Period
01:02:32.957 : :Chris in the Game
01:05:20.082 : :Trustworthy Stranger
01:08:21.931 : :On the Trigger
01:10:46.325 : :Full Command
01:13:38.205 : :Want My Blood!?!
01:17:25.182 : :Phone Tag
01:21:29.342 : :Not What They Seem
01:24:39.407 : :Niebaum's Files
01:29:54.639 : :Getting Inside
01:34:25.034 : :Someone with Access
01:35:47.408 : :Calling His Bluff
01:41:47.643 : :Under Fire
01:46:09.905 : :I Wonder Why
01:50:14.482 : :A Way Out?
01:53:52.492 : :To Their Rescue
01:58:16.589 : :Offsite
02:02:17.538 : :Standoff at Niebaum's
02:05:43.077 : :Negotiating a Deal
02:09:11.869 : :Right to Remain Silent
02:10:59.476 : :Nice Talking to You
02:14:04.703 : :Found Star; End Credits

x264 [info]: frame I:1894 Avg QP:15.05 size: 54377
x264 [info]: frame P:40056 Avg QP:18.20 size: 20535
x264 [info]: frame B:158838 Avg QP:19.84 size: 6550
Релиз от: 0ptimus



Скачать Переговорщик.The.Negotiator.(1998).BDRip-AVC][Dub]+[AVO]+[Sub].torrent без регистрации
Золото ЗОЛОТАЯ РАЗДАЧА! СКАЧАННОЕ НЕ ЗАСЧИТЫВАЕТСЯ! Золото
Дата: Зарегистрирован   [ Тип: внутренний ] Как тут cкачать?
MAGNET ссылка
MAGNET ссылка


Скачать .torrent

18 KB

Статус: проверено DHT
Скачан: торрент - 108 раз, раздача полностью - 4 раз
Размер: 3,46 GB
Оценка:  - (Голосов: 0)
Поблагодарили: 1
Поделиться ссылкой на эту раздачу с друзьями:
В контактеFacebookОдноклассникиTwitterLivejournalМой МирLiveinternet
 

 
Показать сообщения:    


Вы не можете начинать темы
Вы не можете отвечать на сообщения
Вы не можете редактировать свои сообщения
Вы не можете удалять свои сообщения
Вы не можете голосовать в опросах
Вы не можете прикреплять файлы к сообщениям
Вы можете скачивать файлы