Loading...
Error

Скачать Кровавый ручей / Город у Ручья / Blood Creek (Джоэл Шумахер) [2009, ужасы, мистика, триллер, BDRip-AVC] [VO]+[Оригинал]+[Sub] торрент без регистрации

 
Статистика раздачи
Размер:  2,19 GB   |    Скачан:  133 раза

Полного источника не было: 26 минут

 
Автор Сообщение

Marsianka

[] 

Год выпуска: 2009
Страна: США
Жанр: ужасы, мистика, триллер
Режиссер: Джоэл Шумахер / Joel Schumacher
В ролях: Генри Кавилл, Доминик Пурселл, Эмма Бут, Майкл Фассбендер, Рэйнер Винкелвосс, Ласло Матраи, Джой МакБринн, Ши Уигхэм, Энтони Бэргер, Дуглас Роджер и др.

Описание:
В 30-е годы ХХ века в ближайшем окружении Гитлера было создано общество, целью которого было изучение оккультных наук. Разосланные Гитлером агенты обшаривали каждую пядь земли в поисках древних артефактов, которые могли указать путь к величайшей загадке бессмертию. Одними из таких артефактов были так называемые Рунные Камни Они были найдены Но не смогут ли отголоски тех событий вылиться в катастрофу в наши дни?



Продолжительность: 1:30:11
Перевод: Одноголосый закадровый [zamez]
Оригинальная аудиодорожка: Английская
Cубтитры: Английские (*.srt) - скачать отдельно

Качество видео: BDRip-AVC
Исходник: BDRemux 1080p
Формат видео: MKV
Видео: 1120x476 (2.35:1), 24 fps, x264 ~2575 kbps avg, 0.201 bit/pixel
Аудио 1: 48 kHz, AC3 Dolby Digital, 3/2 (L,C,R,l,r) + LFE ch, ~448 kbps [rus]
Аудио 2: 48 kHz, AC3 Dolby Digital, 3/2 (L,C,R,l,r) + LFE ch, ~448 kbps [eng]
Размер: 2239.98 Mb ( 2 348 785 144 bytes ) - 1/2 DVD

Код:
General
Unique ID : 187513118013900094050429417771817498654 (0x8D11B68046B20C478A205723F1B3F81E)
Complete name : C:BloodCreek2009.Town Creek.mkv
Format : Matroska
Format version : Version 2
File size : 2.19 GiB
Duration : 1h 30mn
Overall bit rate : 3 471 Kbps
Encoded date : UTC 2012-02-21 02:08:04
Writing application : mkvmerge v5.2.1 ('A Far Off Place') built on Jan 2 2012 23:21:10
Writing library : libebml v1.2.3 + libmatroska v1.3.0

Video
ID : 1
Format : AVC
Format/Info : Advanced Video Codec
Format profile : High@L4.1
Format settings, CABAC : Yes
Format settings, ReFrames : 13 frames
Codec ID : V_MPEG4/ISO/AVC
Duration : 1h 30mn
Bit rate : 2 575 Kbps
Width : 1 120 pixels
Height : 476 pixels
Display aspect ratio : 2.35:1
Frame rate : 24.000 fps
Color space : YUV
Chroma subsampling : 4:2:0
Bit depth : 8 bits
Scan type : Progressive
Bits/(Pixel*Frame) : 0.201
Stream size : 1.58 GiB (72%)
Writing library : x264 core 120 r2146kMod bcd41db
Encoding settings : cabac=1 / ref=13 / deblock=1:-3:-2 / analyse=0x3:0x133 / me=umh / subme=11 / psy=1 / fade_compensate=0.00 / psy_rd=1.10:0.10 / mixed_ref=1 / me_range=32 / chroma_me=1 / trellis=2 / 8x8dct=1 / cqm=0 / deadzone=21,11 / fast_pskip=0 / chroma_qp_offset=-3 / threads=6 / sliced_threads=0 / nr=0 / decimate=1 / interlaced=0 / bluray_compat=0 / constrained_intra=0 / bframes=12 / b_pyramid=2 / b_adapt=2 / b_bias=0 / direct=3 / weightb=1 / open_gop=0 / weightp=2 / keyint=240 / keyint_min=23 / scenecut=40 / intra_refresh=0 / rc=2pass / mbtree=0 / bitrate=2575 / ratetol=1.0 / qcomp=0.60 / qpmin=0 / qpmax=69 / qpstep=4 / cplxblur=20.0 / qblur=0.5 / ip_ratio=1.35 / pb_ratio=1.25 / aq=3:0.90
Default : Yes
Forced : Yes

Audio #1
ID : 2
Format : AC-3
Format/Info : Audio Coding 3
Mode extension : CM (complete main)
Codec ID : A_AC3
Duration : 1h 30mn
Bit rate mode : Constant
Bit rate : 448 Kbps
Channel(s) : 6 channels
Channel positions : Front: L C R, Side: L R, LFE
Sampling rate : 48.0 KHz
Bit depth : 16 bits
Compression mode : Lossy
Stream size : 289 MiB (13%)
Title : VO [zamez]
Language : Russian
Default : Yes
Forced : No

Audio #2
ID : 3
Format : AC-3
Format/Info : Audio Coding 3
Mode extension : CM (complete main)
Codec ID : A_AC3
Duration : 1h 30mn
Bit rate mode : Constant
Bit rate : 448 Kbps
Channel(s) : 6 channels
Channel positions : Front: L C R, Side: L R, LFE
Sampling rate : 48.0 KHz
Bit depth : 16 bits
Compression mode : Lossy
Stream size : 289 MiB (13%)
Language : English
Default : No
Forced : No



Скачать Кровавый.ручей.Город.у.Ручья.Blood.Creek.(Джоэл.Шумахер).[2009.ужасы.мистика.триллер.BDRip-AVC].[VO]+[Оригинал]+[Sub].torrent без регистрации
Золото ЗОЛОТАЯ РАЗДАЧА! СКАЧАННОЕ НЕ ЗАСЧИТЫВАЕТСЯ! Золото
Дата: Зарегистрирован   [ Тип: внутренний ] Как тут cкачать?
MAGNET ссылка
MAGNET ссылка


Скачать .torrent

12 KB

Статус: проверено DHT
Скачан: торрент - 133 раз, раздача полностью - 53 раз
Размер: 2,19 GB
Оценка:  5 (Голосов: 1)
Поблагодарили: 2
Поделиться ссылкой на эту раздачу с друзьями:
В контактеFacebookОдноклассникиTwitterLivejournalМой МирLiveinternet
 

 
Показать сообщения:    


Вы не можете начинать темы
Вы не можете отвечать на сообщения
Вы не можете редактировать свои сообщения
Вы не можете удалять свои сообщения
Вы не можете голосовать в опросах
Вы не можете прикреплять файлы к сообщениям
Вы можете скачивать файлы