Loading...
Error

Скачать Мир без конца / World Without End (01x01-08 из 08) (Майкл Кейтон-Джонс) [2012, триллер, драма, мелодрама, история, DVDRip] [MVO] торрент без регистрации

 
Статистика раздачи
Размер:  7,6 GB   |    Скачан:  146 раз
Сидов:  1  [  0 KB/s  ]  
 
Автор Сообщение

МихаНЕзатор

[] 

Год выпуска: 2012
Страна: Канада, Германия, Великобритания
Жанр: триллер, драма, мелодрама, история
Продолжительность: 8 х ~00:47:25

Перевод: Профессиональный (многоголосый, закадровый)
Оригинальная аудиодорожка: английский
Русские субтитры: есть

Режиссёр: Майкл Кейтон-Джонс / Michael Caton-Jones

В ролях: Бен Чаплин, Шарлотта Райли, Нора фон Вальдштеттен, Оливер Джексон-Коэн, Руперт Эванс, Том Уэстон-Джонс, Том Каллен, Блейк Ритсон, Сэлли Бэнкс, Нил Белл...

Описание: Действие сериала разворачивается в вымышленном английском городке Кингсбридж, в 1300-х годах, когда страна находилась на пороге Столетней войны с Францией и вспышки эпидемии чумы в Европе. На рынках процветающего городка Кингсбридж ходят слухи, что король Англии погиб при странных обстоятельствах. Гражданская война закончилась, но экономическое положение города позволяет ему оставаться надежным средством пополнения казны.



Исходник: 2 х DVD9 R5
Качество: DVDRip
Формат: AVI
Видео: 720x400 (16:9), 25 fps, XviD ~ 2000 kbps avg, 0.278 bit/pixel
Аудио 1: 48 kHz, AC3, 6 ch, 448.00 kbps, русский
Аудио 2: 48 kHz, AC3, 6 ch, 448.00 kbps, английский
Формат субтитров: SoftSub (srt)

General
Complete name : Mir.bez.kontsa.s01.2012.P.DVDRip_[Youtracker]_by_avproh1.avi
Format : AVI
Format/Info : Audio Video Interleave
File size : 1 019 MiB
Duration : 48mn 58s
Overall bit rate : 2 909 Kbps
Writing application : VirtualDubModRus 1.5.10.2 (build 2542/release)
Writing library : VirtualDubMod build 2542/release

Video
ID : 0
Format : MPEG-4 Visual
Format profile : Advanced Simple@L5
Format settings, BVOP : 1
Format settings, QPel : No
Format settings, GMC : No warppoints
Format settings, Matrix : Custom
Codec ID : XVID
Codec ID/Hint : XviD
Duration : 48mn 58s
Bit rate : 1 999 Kbps
Width : 720 pixels
Height : 400 pixels
Display aspect ratio : 16:9
Frame rate : 25.000 fps
Color space : YUV
Chroma subsampling : 4:2:0
Bit depth : 8 bits
Scan type : Progressive
Compression mode : Lossy
Bits/(Pixel*Frame) : 0.278
Stream size : 700 MiB (69%)
Writing library : XviD 65

Audio #1
ID : 1
Format : AC-3
Format/Info : Audio Coding 3
Mode extension : CM (complete main)
Codec ID : 2000
Duration : 48mn 58s
Bit rate mode : Constant
Bit rate : 448 Kbps
Channel(s) : 6 channels
Channel positions : Front: L C R, Side: L R, LFE
Sampling rate : 48.0 KHz
Bit depth : 16 bits
Compression mode : Lossy
Stream size : 157 MiB (15%)
Alignment : Split accross interleaves
Interleave, duration : 40 ms (1.00 video frame)
Interleave, preload duration : 500 ms

Audio #2
ID : 2
Format : AC-3
Format/Info : Audio Coding 3
Mode extension : CM (complete main)
Codec ID : 2000
Duration : 48mn 58s
Bit rate mode : Constant
Bit rate : 448 Kbps
Channel(s) : 6 channels
Channel positions : Front: L C R, Side: L R, LFE
Sampling rate : 48.0 KHz
Bit depth : 16 bits
Compression mode : Lossy
Stream size : 157 MiB (15%)
Alignment : Split accross interleaves
Interleave, duration : 40 ms (1.00 video frame)
Interleave, preload duration : 500 ms



Скачать Мир.без.конца.World.Without.End.(01x01-08.из.08).(Майкл.Кейтон-Джонс).[2012.триллер.драма.мелодрама.история.DVDRip].[MVO].torrent без регистрации
Золото ЗОЛОТАЯ РАЗДАЧА! СКАЧАННОЕ НЕ ЗАСЧИТЫВАЕТСЯ! Золото
Дата: Зарегистрирован   [ Тип: внутренний ] Как тут cкачать?
MAGNET ссылка
MAGNET ссылка


Скачать .torrent

20 KB

Статус: проверено DHT
Скачан: торрент - 146 раз, раздача полностью - 10 раз
Размер: 7,6 GB
Оценка:  - (Голосов: 0)
Поблагодарили: 0
Поделиться ссылкой на эту раздачу с друзьями:
В контактеFacebookОдноклассникиTwitterLivejournalМой МирLiveinternet
 

 
Показать сообщения:    


Вы не можете начинать темы
Вы не можете отвечать на сообщения
Вы не можете редактировать свои сообщения
Вы не можете удалять свои сообщения
Вы не можете голосовать в опросах
Вы не можете прикреплять файлы к сообщениям
Вы можете скачивать файлы