Loading...
Error

Скачать Мир без конца / World Without End (01x01-08 из 08) (Майкл Кейтон-Джонс) [2012, триллер, драма, мелодрама, история, DVDRip] [MVO] торрент без регистрации

 
Статистика раздачи
Размер:  2,97 GB   |    Скачан:  140 раз
Сидов:  1  [  0 KB/s  ]  
 
Автор Сообщение

МихаНЕзатор

[] 

Год выпуска: 2012
Страна: Канада, Германия, Великобритания
Жанр: триллер, драма, мелодрама, история
Продолжительность: 8 х ~00:47:25

Перевод: Профессиональный (многоголосый, закадровый)
Оригинальная аудиодорожка: нет
Русские субтитры: нет

Режиссёр: Майкл Кейтон-Джонс / Michael Caton-Jones

В ролях: Бен Чаплин, Шарлотта Райли, Нора фон Вальдштеттен, Оливер Джексон-Коэн, Руперт Эванс, Том Уэстон-Джонс, Том Каллен, Блейк Ритсон, Сэлли Бэнкс, Нил Белл...

Описание: Действие сериала разворачивается в вымышленном английском городке Кингсбридж, в 1300-х годах, когда страна находилась на пороге Столетней войны с Францией и вспышки эпидемии чумы в Европе. На рынках процветающего городка Кингсбридж ходят слухи, что король Англии погиб при странных обстоятельствах. Гражданская война закончилась, но экономическое положение города позволяет ему оставаться надежным средством пополнения казны.



Исходник: 2 х DVD9 R5
Качество: DVDRip
Формат: AVI
Видео: 656x368 (16:9), 25 fps, XviD ~ 1000 kbps avg, 0.166 bit/pixel
Аудио: 48 kHz, MP3, 2 ch, 128.00 kbps, русский

Общее
Полное имя : Mir.bez.kontsa.s01.2012.DVDRipm_[Youtracker]_by_avproh1.avi
Формат : AVI
Формат/Информация : Audio Video Interleave
Размер файла : 399 Мбайт
Продолжительность : 48 м.
Общий поток : 1138 Кбит/сек
Программа кодирования : VirtualDubMod 1.5.10.3 | www.virtualdub-fr.org || (build 2550/release)
Библиотека кодирования : VirtualDubMod build 2550/release

Видео
Идентификатор : 0
Формат : MPEG-4 Visual
Профиль формата : Advanced Simple@L5
Параметр BVOP формата : 1
Параметр QPel формата : Нет
Параметр GMC формата : Без точки перехода
Параметр матрицы формата : Выборочная
Идентификатор кодека : XVID
Идентификатор кодека/Подсказка : XviD
Продолжительность : 48 м.
Битрейт : 1000 Кбит/сек
Ширина : 656 пикселей
Высота : 368 пикселей
Соотношение сторон : 16:9
Частота кадров : 25,000 кадров/сек
Цветовое пространство : YUV
Субдискретизация насыщенности : 4:2:0
Битовая глубина : 8 бит
Тип развёртки : Прогрессивная
Метод сжатия : С потерями
Бит/(Пиксели*Кадры) : 0.166
Размер потока : 350 Мбайт (88%)
Библиотека кодирования : XviD 65

Аудио
Идентификатор : 1
Формат : MPEG Audio
Версия формата : Version 1
Профиль формата : Layer 3
Идентификатор кодека : 55
Идентификатор кодека/Подсказка : MP3
Продолжительность : 48 м.
Вид битрейта : Постоянный
Битрейт : 128 Кбит/сек
Каналы : 2 канала
Частота : 48,0 КГц
Метод сжатия : С потерями
Размер потока : 44,8 Мбайт (11%)
Выравнивание : Соединение по промежуткам
Продолжительность промежутка : 40 мс. (1,00 видеокадр)
Время предзагрузки промежутка : 504 мс.



Скачать Мир.без.конца.World.Without.End.(01x01-08.из.08).(Майкл.Кейтон-Джонс).[2012.триллер.драма.мелодрама.история.DVDRip].[MVO].torrent без регистрации
Золото ЗОЛОТАЯ РАЗДАЧА! СКАЧАННОЕ НЕ ЗАСЧИТЫВАЕТСЯ! Золото
Дата: Зарегистрирован   [ Тип: внутренний ] Как тут cкачать?
MAGNET ссылка
MAGNET ссылка


Скачать .torrent

16 KB

Статус: проверено DHT
Скачан: торрент - 140 раз, раздача полностью - 19 раз
Размер: 2,97 GB
Оценка:  - (Голосов: 0)
Поблагодарили: 1
Поделиться ссылкой на эту раздачу с друзьями:
В контактеFacebookОдноклассникиTwitterLivejournalМой МирLiveinternet
 

 
Показать сообщения:    


Вы не можете начинать темы
Вы не можете отвечать на сообщения
Вы не можете редактировать свои сообщения
Вы не можете удалять свои сообщения
Вы не можете голосовать в опросах
Вы не можете прикреплять файлы к сообщениям
Вы можете скачивать файлы