Loading...
Error

Скачать Нож в воде / NЈ, w wodzie (Роман Полански) [1962, драма, DVDRip-AVC] [MVO]+[Sub] торрент без регистрации

 
Статистика раздачи
Размер:  2,18 GB   |    Скачан:  105 раз
Сидов:  1  [  0 KB/s  ]  
 
Автор Сообщение

Marsianka

[] 

Информация о фильме
Название: Нож в воде
Оригинальное название: NЈ, w wodzie
Год выхода: 1962
Жанр: драма
Режиссер: Роман Полански / Roman Polanski
В ролях: Леон Нимчик, Иоланта Умека, Зигмунд Маланович

О фильме:
Обеспеченная пара из Баршавы - Анджей (Л.Немчик) и Кристина (И.Умецка) по дороге на Мазурские озера, где собираются провести уик-энд, подбирают молодого человека (З.Малянович), путешествующего автостопом. Хозяин яхты приглашает его провести с ними день на озерах.
Анджей пытается использовать любую возможность, любой предлог, что бы показать свое превосходство, опыт, зрелость. Напряжение нарастает, доходит до физического столкновения...



Страна: Польша
Студия: Zespol Filmowy "Kamera"
Продолжительность: 01:34:35
Перевод: Профессиональный (многоголосный, закадровый) R5 "Видеоимпульс"

Файл
Кодек: h.264
Качество: DVDRip-AVC
Видео: 704x480 (4:3) @ 628x480, 23.976 fps, AVC, ~2907 Kbps, 0.359 bits/pixel
Звук:
1) Польский 48.0 KHz, AC3, 1 ch, 192 Kbps
2) Русский 48.0 KHz, AC3, 1 ch, 192 Kbps
Субтитры:
1) Английские, VobSub
2) Русские, VobSub
Исходник - R1 Criterion Collection + синхр. зв. дорожка и субтитры от "Видеоимпульса".
Общее
Уникальный идентификатор : 233474532954430972542324137248030640812 (0xAFA58F36998A4211953107BFC28ECAAC)
Полное имя : E:FilmsNozh_v_vode.1962.DVDRip-AVC.mkv
Формат : Matroska
Версия формата : Version 4 / Version 2
Размер файла : 2,18 Гбайт
Продолжительность : 1 ч. 34 м.
Общий поток : 3294 Кбит/сек
Дата кодирования : UTC 2013-02-16 14:10:35
Программа кодирования : mkvmerge v6.0.0 ('Coming Up For Air') built on Jan 20 2013 09:52:00
Библиотека кодирования : libebml v1.3.0 + libmatroska v1.4.0

Видео
Идентификатор : 1
Формат : AVC
Формат/Информация : Advanced Video Codec
Профиль формата : High@L4.1
Параметр CABAC формата : Да
Параметр ReFrames формата : 8 кадров
Идентификатор кодека : V_MPEG4/ISO/AVC
Продолжительность : 1 ч. 34 м.
Битрейт : 2907 Кбит/сек
Ширина : 704 пикселя
Высота : 480 пикселей
Соотношение сторон : 4:3
Соотношение сторон в оригинале : 4:3
Режим частоты кадров : Постоянный
Частота кадров : 23,976 кадра/сек
Стандарт вещания : NTSC
Цветовое пространство : YUV
Субдискретизация насыщенности : 4:2:0
Битовая глубина : 8 бит
Тип развёртки : Прогрессивная
Бит/(Пиксели*Кадры) : 0.359
Размер потока : 1,88 Гбайт (86%)
Библиотека кодирования : x264 core 129 r2245 bc13772
Настройки программы : cabac=1 / ref=8 / deblock=1:-1:0 / analyse=0x3:0x133 / me=umh / subme=9 / psy=1 / psy_rd=1.00:0.15 / mixed_ref=1 / me_range=16 / chroma_me=1 / trellis=2 / 8x8dct=1 / cqm=0 / deadzone=21,11 / fast_pskip=1 / chroma_qp_offset=-3 / threads=8 / lookahead_threads=1 / sliced_threads=0 / nr=0 / decimate=1 / interlaced=0 / bluray_compat=0 / constrained_intra=0 / bframes=3 / b_pyramid=2 / b_adapt=2 / b_bias=0 / direct=3 / weightb=1 / open_gop=0 / weightp=2 / keyint=240 / keyint_min=23 / scenecut=40 / intra_refresh=0 / rc_lookahead=60 / rc=2pass / mbtree=1 / bitrate=2907 / ratetol=1.0 / qcomp=0.60 / qpmin=0 / qpmax=69 / qpstep=4 / cplxblur=20.0 / qblur=0.5 / ip_ratio=1.40 / aq=1:1.00
Default : Нет
Forced : Нет
Коэффициенты матрицы : BT.601

Аудио #1
Идентификатор : 2
Формат : AC-3
Формат/Информация : Audio Coding 3
Расширение режима : CM (complete main)
Параметр Endianness формата : Big
Идентификатор кодека : A_AC3
Продолжительность : 1 ч. 34 м.
Вид битрейта : Постоянный
Битрейт : 192 Кбит/сек
Каналы : 1 канал
Расположение каналов : Front: C
Частота : 48,0 КГц
Битовая глубина : 16 бит
Метод сжатия : С потерями
Размер потока : 130 Мбайт (6%)
Язык : Polish
Default : Нет
Forced : Нет

Аудио #2
Идентификатор : 3
Формат : AC-3
Формат/Информация : Audio Coding 3
Расширение режима : CM (complete main)
Параметр Endianness формата : Big
Идентификатор кодека : A_AC3
Продолжительность : 1 ч. 34 м.
Вид битрейта : Постоянный
Битрейт : 192 Кбит/сек
Каналы : 1 канал
Расположение каналов : Front: C
Частота : 48,0 КГц
Битовая глубина : 16 бит
Метод сжатия : С потерями
Размер потока : 130 Мбайт (6%)
Язык : Russian
Default : Да
Forced : Нет

Текст #1
Идентификатор : 4
Формат : VobSub
Режим смешивания : zlib
Идентификатор кодека : S_VOBSUB
Идентификатор кодека/Информация : The same subtitle format used on DVDs
Язык : English
Default : Нет
Forced : Нет

Текст #2
Идентификатор : 5
Формат : VobSub
Режим смешивания : zlib
Идентификатор кодека : S_VOBSUB
Идентификатор кодека/Информация : The same subtitle format used on DVDs
Язык : Russian
Default : Нет
Forced : Нет

Меню
00:00:00.000 : en:Chapter 01
00:07:37.801 : en:Chapter 02
00:15:22.068 : en:Chapter 03
00:21:42.602 : en:Chapter 04
00:24:15.570 : en:Chapter 05
00:30:46.104 : en:Chapter 06
00:35:50.871 : en:Chapter 07
00:41:13.472 : en:Chapter 08
00:47:30.806 : en:Chapter 09
00:50:51.473 : en:Chapter 10
01:02:34.608 : en:Chapter 11
01:10:18.608 : en:Chapter 12
01:16:59.309 : en:Chapter 13
01:26:09.210 : en:Chapter 14
01:34:26.078 : en:Chapter 15
Анаморфные
Релиз от: от Temperest



Скачать Нож.в.воде.NЈ.w.wodzie.(Роман.Полански).[1962.драма.DVDRip-AVC].[MVO]+[Sub].torrent без регистрации
Золото ЗОЛОТАЯ РАЗДАЧА! СКАЧАННОЕ НЕ ЗАСЧИТЫВАЕТСЯ! Золото
Дата: Зарегистрирован   [ Тип: внутренний ] Как тут cкачать?
MAGNET ссылка
MAGNET ссылка


Скачать .torrent

11 KB

Статус: проверено DHT
Скачан: торрент - 105 раз, раздача полностью - 16 раз
Размер: 2,18 GB
Оценка:  - (Голосов: 0)
Поблагодарили: 1
Поделиться ссылкой на эту раздачу с друзьями:
В контактеFacebookОдноклассникиTwitterLivejournalМой МирLiveinternet
 

 
Показать сообщения:    


Вы не можете начинать темы
Вы не можете отвечать на сообщения
Вы не можете редактировать свои сообщения
Вы не можете удалять свои сообщения
Вы не можете голосовать в опросах
Вы не можете прикреплять файлы к сообщениям
Вы можете скачивать файлы