Loading...
Error

Скачать Не грози южному централу, попивая сок у себя в квартале / Don't Be a Menace to South Central While Drinking Your Juice in the Hood (Пэрис Барклай) [1996, комедия, криминал, HDRip] [MVO] торрент без регистрации

 
Статистика раздачи
Размер:  745 MB   |    Скачан:  122 раза
Сидов:  1  [  0 KB/s  ]  
 
Автор Сообщение

Marsianka

[] 

Информация о фильме
Название: Не грози южному централу, попивая сок у себя в квартале
Оригинальное название: Don't Be a Menace to South Central While Drinking Your Juice in the Hood
Год выхода: 1996
Жанр: комедия, криминал
Режиссер: Пэрис Барклай / Paris Barclay
В ролях: Шоун Уайанс, Марлон Уайанс, Трэйси Черелл Джонс, Крис Спенсер, Сули МакКалло, Хелен Мартин, Даррел Хит, Айзиа Барнс, Ламард Дж. Тейт, Кинен Айвори Уайанс

О фильме:
Молодой афроамериканец по прозвищу Пепельница переезжает в Лос-Анджелес со своим отцом и бабушкой. Пепельница гордится тем, что они с отцом выглядят ровесниками, это, по его мнению, «очень круто». Гордится он и своей бабушкой, которая в свои-то преклонные годы покуривает и не стесняется крепких словечек.
Вскоре Пепельница знакомится со своим кузеном по прозвищу Цепной Пес. Этот парень гангстер, в его личном арсенале не только пистолеты и автомат, но и термоядерная боеголовка «для самозащиты». Пепельница должен выбрать свой дальнейший путь в жизни: он может быть «просто хорошим чернокожим» или стать «опасным чернокожим», примкнув к банде своего кузена.




Страна: США
Продолжительность: 01:28:53
Перевод: Профессиональный (многоголосый закадровый) WestVideo

Файл
Кодек: XviD
Качество: HDRip
Видео: 720x400 (16:9), 23.976 fps, 1 035 Kbps, 0.15 Bits/(Pixel*Frame)
Звук: MP3, 48 KHz, 128 Kbps, 2 channels
General
Complete name : D:Ne.grozi.juzhnomu.centralu.1996.P.HDRip.XviD.mp3.745mb.avi
Format : AVI
Format/Info : Audio Video Interleave
File size : 745 MiB
Duration : 1h 28mn
Overall bit rate : 1 172 Kbps
Writing application : VirtualDubMod 1.5.10.2 (build 2540/release)
Writing library : VirtualDubMod build 2540/release

Video
ID : 0
Format : MPEG-4 Visual
Format profile : Advanced Simple@L5
Format settings, BVOP : 1
Format settings, QPel : No
Format settings, GMC : No warppoints
Format settings, Matrix : Default (MPEG)
Codec ID : XVID
Codec ID/Hint : XviD
Duration : 1h 28mn
Bit rate : 1 035 Kbps
Width : 720 pixels
Height : 400 pixels
Display aspect ratio : 16:9
Frame rate : 23.976 fps
Color space : YUV
Chroma subsampling : 4:2:0
Bit depth : 8 bits
Scan type : Progressive
Compression mode : Lossy
Bits/(Pixel*Frame) : 0.150
Stream size : 658 MiB (88%)
Writing library : XviD 1.2.1 (UTC 2008-12-04)

Audio
ID : 1
Format : MPEG Audio
Format version : Version 1
Format profile : Layer 3
Mode : Joint stereo
Mode extension : MS Stereo
Codec ID : 55
Codec ID/Hint : MP3
Duration : 1h 28mn
Bit rate mode : Constant
Bit rate : 128 Kbps
Channel(s) : 2 channels
Sampling rate : 48.0 KHz
Compression mode : Lossy
Stream size : 81.4 MiB (11%)
Alignment : Aligned on interleaves
Interleave, duration : 42 ms (1.00 video frame)
Interleave, preload duration : 504 ms



Скачать Не.грози.южному.централу.попивая.сок.у.себя.в.квартале.Don't.Be.a.Menace.to.South.Central.While.Drinking.Your.Juice.in.the.Hood.(Пэрис.Барклай).[1996.комедия.криминал.HDRip].[MVO].torrent без регистрации
Золото ЗОЛОТАЯ РАЗДАЧА! СКАЧАННОЕ НЕ ЗАСЧИТЫВАЕТСЯ! Золото
Дата: Зарегистрирован   [ Тип: внутренний ] Как тут cкачать?
MAGNET ссылка
MAGNET ссылка


Скачать .torrent

15 KB

Статус: проверено DHT
Скачан: торрент - 122 раз, раздача полностью - 28 раз
Размер: 745 MB
Оценка:  - (Голосов: 0)
Поблагодарили: 1
Поделиться ссылкой на эту раздачу с друзьями:
В контактеFacebookОдноклассникиTwitterLivejournalМой МирLiveinternet
 

 
Показать сообщения:    


Вы не можете начинать темы
Вы не можете отвечать на сообщения
Вы не можете редактировать свои сообщения
Вы не можете удалять свои сообщения
Вы не можете голосовать в опросах
Вы не можете прикреплять файлы к сообщениям
Вы можете скачивать файлы