Loading...
Error

Скачать Мужское-женское / Masculin f™minin (Жан-Люк Годар) [1966, драма, DVDRip-AVC] [MVO]+[Sub] торрент без регистрации

 
Статистика раздачи
Размер:  2,17 GB   |    Скачан:  122 раза

Полного источника не было: 24 минуты

 
Автор Сообщение

Marsianka

[] 

Информация о фильме
Название: Мужское-женское
Оригинальное название: Masculin f™minin
Год выхода: 1966
Жанр: драма
Режиссер: Жан-Люк Годар
В ролях: Жан-Пьер Лео, Шанталь Гойа, Марлен Жобер, Бриджит Бардо, Биргер Мальмстен, Ив Афонсо, Анри Атталь и др.

О фильме:
Поль встречает в кафе Мадлен, между ними завязывается разговор - странный и внешне отвлеченный, как всегда бывает у Годара. Поль пишет стихи, увлекается левыми идеями, он интеллектуал и герой своего времени, поэтому остается в меньшинстве. Он только что отслужил в армии и воспринимает гражданку немного свысока. Это «женская», то есть уютная конформистская жизнь, где занимаются шопингом, строят карьеру поп-певицы и хотят походить на персонажей рекламы.

Для Поля, а вместе с ним и Годара «мужская» жизнь - это протест, революция, раздражение несогласного одиночки против общественного согласия. В одном из своих самых социально заостренных фильмов Годар диагностирует растерянность, с которой поколение студенческой революции двигалось к своему взрослению.




Страна: Франция, Швеция
Студия: Anouchka Films, Argos Films, Sandrews
Продолжительность: 01:44:37
Перевод: Профессиональный (многоголосный, закадровый) R5 "Кармен Видео"

Файл
Кодек: h.264
Качество: DVDRip-AVC
Видео: 640x480 (4:3), 23.976 fps, AVC, ~2581 Kbps, 0.350 bits/pixel
Звук:
1) Французский, 48.0 KHz, AC3, 1 ch, 192 Kbps
2) Русский, 48.0 KHz, AC3, 1 ch, 192 Kbps
Субтитры:
1) Английские, VobSub
2) Русские, VobSub
Источник - R1 DVD9 Criterion Collection + синхр. титры м зв. дорожка от "Кармен Видео".
Общее
Уникальный идентификатор : 188332501613039187058534179401135791911 (0x8DAF853B47ADD3D08A89E3C5A58F9F27)
Полное имя : E:FilmsMuzhskoe_Zhenskoe.1966.DVDRip-AVC.mkv
Формат : Matroska
Версия формата : Version 4 / Version 2
Размер файла : 2,17 Гбайт
Продолжительность : 1 ч. 44 м.
Общий поток : 2971 Кбит/сек
Дата кодирования : UTC 2013-02-17 10:02:53
Программа кодирования : mkvmerge v6.0.0 ('Coming Up For Air') built on Jan 20 2013 09:52:00
Библиотека кодирования : libebml v1.3.0 + libmatroska v1.4.0

Видео
Идентификатор : 1
Формат : AVC
Формат/Информация : Advanced Video Codec
Профиль формата : High@L4.1
Параметр CABAC формата : Да
Параметр ReFrames формата : 8 кадров
Идентификатор кодека : V_MPEG4/ISO/AVC
Продолжительность : 1 ч. 44 м.
Битрейт : 2581 Кбит/сек
Ширина : 640 пикселей
Высота : 480 пикселей
Соотношение сторон : 4:3
Режим частоты кадров : Постоянный
Частота кадров : 23,976 кадра/сек
Цветовое пространство : YUV
Субдискретизация насыщенности : 4:2:0
Битовая глубина : 8 бит
Тип развёртки : Прогрессивная
Бит/(Пиксели*Кадры) : 0.350
Размер потока : 1,85 Гбайт (85%)
Библиотека кодирования : x264 core 129 r2245 bc13772
Настройки программы : cabac=1 / ref=8 / deblock=1:-1:0 / analyse=0x3:0x133 / me=umh / subme=9 / psy=1 / psy_rd=1.00:0.15 / mixed_ref=1 / me_range=16 / chroma_me=1 / trellis=2 / 8x8dct=1 / cqm=0 / deadzone=21,11 / fast_pskip=1 / chroma_qp_offset=-3 / threads=8 / lookahead_threads=1 / sliced_threads=0 / nr=0 / decimate=1 / interlaced=0 / bluray_compat=0 / constrained_intra=0 / bframes=3 / b_pyramid=2 / b_adapt=2 / b_bias=0 / direct=3 / weightb=1 / open_gop=0 / weightp=2 / keyint=240 / keyint_min=23 / scenecut=40 / intra_refresh=0 / rc_lookahead=60 / rc=2pass / mbtree=1 / bitrate=2581 / ratetol=1.0 / qcomp=0.60 / qpmin=0 / qpmax=69 / qpstep=4 / cplxblur=20.0 / qblur=0.5 / ip_ratio=1.40 / aq=1:1.00
Default : Нет
Forced : Нет
Коэффициенты матрицы : BT.601

Аудио #1
Идентификатор : 2
Формат : AC-3
Формат/Информация : Audio Coding 3
Расширение режима : CM (complete main)
Параметр Endianness формата : Big
Идентификатор кодека : A_AC3
Продолжительность : 1 ч. 44 м.
Вид битрейта : Постоянный
Битрейт : 192 Кбит/сек
Каналы : 1 канал
Расположение каналов : Front: C
Частота : 48,0 КГц
Битовая глубина : 16 бит
Метод сжатия : С потерями
Размер потока : 144 Мбайт (6%)
Язык : French
Default : Нет
Forced : Нет

Аудио #2
Идентификатор : 3
Формат : AC-3
Формат/Информация : Audio Coding 3
Расширение режима : CM (complete main)
Параметр Endianness формата : Big
Идентификатор кодека : A_AC3
Продолжительность : 1 ч. 44 м.
Вид битрейта : Постоянный
Битрейт : 192 Кбит/сек
Каналы : 1 канал
Расположение каналов : Front: C
Частота : 48,0 КГц
Битовая глубина : 16 бит
Метод сжатия : С потерями
Размер потока : 144 Мбайт (6%)
Язык : Russian
Default : Да
Forced : Нет

Текст #1
Идентификатор : 4
Формат : VobSub
Режим смешивания : zlib
Идентификатор кодека : S_VOBSUB
Идентификатор кодека/Информация : The same subtitle format used on DVDs
Язык : English
Default : Нет
Forced : Нет

Текст #2
Идентификатор : 5
Формат : VobSub
Режим смешивания : zlib
Идентификатор кодека : S_VOBSUB
Идентификатор кодека/Информация : The same subtitle format used on DVDs
Язык : Russian
Default : Нет
Forced : Нет

Меню
00:00:00.000 : en:Chapter 01
00:07:16.000 : en:Chapter 02
00:11:48.667 : en:Chapter 03
00:22:55.034 : en:Chapter 04
00:28:49.002 : en:Chapter 05
00:33:44.870 : en:Chapter 06
00:40:03.370 : en:Chapter 07
00:45:20.171 : en:Chapter 08
00:58:02.505 : en:Chapter 09
01:04:40.373 : en:Chapter 10
01:15:14.341 : en:Chapter 11
01:23:53.341 : en:Chapter 12
01:32:13.175 : en:Chapter 13
01:34:32.009 : en:Chapter 14
01:41:29.176 : en:Chapter 15
01:44:30.510 : en:Chapter 16
Релиз от: Temperest



Скачать Мужское-женское.Masculin.f™minin.(Жан-Люк.Годар).[1966.драма.DVDRip-AVC].[MVO]+[Sub].torrent без регистрации
Золото ЗОЛОТАЯ РАЗДАЧА! СКАЧАННОЕ НЕ ЗАСЧИТЫВАЕТСЯ! Золото
Дата: Зарегистрирован   [ Тип: внутренний ] Как тут cкачать?
MAGNET ссылка
MAGNET ссылка


Скачать .torrent

11 KB

Статус: проверено DHT
Скачан: торрент - 122 раз, раздача полностью - 12 раз
Размер: 2,17 GB
Оценка:  - (Голосов: 0)
Поблагодарили: 1
Поделиться ссылкой на эту раздачу с друзьями:
В контактеFacebookОдноклассникиTwitterLivejournalМой МирLiveinternet
 

 
Показать сообщения:    


Вы не можете начинать темы
Вы не можете отвечать на сообщения
Вы не можете редактировать свои сообщения
Вы не можете удалять свои сообщения
Вы не можете голосовать в опросах
Вы не можете прикреплять файлы к сообщениям
Вы можете скачивать файлы