Loading...
Error

Скачать Эль Сид / El Cid (Энтони Манн) [1961, боевик, драма, мелодрама, военный, биография, BDRip-AVC] [MVO]+[AVO]+[Sub] торрент без регистрации

 
Статистика раздачи
Размер:  4,72 GB   |    Скачан:  116 раз
Сидов:  1  [  0 KB/s  ]  
 
Автор Сообщение

Marsianka

[] 

Информация о фильме
Название: Эль Сид
Оригинальное название: El Cid
Год выпуска: 1961
Жанр: боевик, драма, мелодрама, военный, биография
Режиссер: Энтони Манн
В ролях: Чарлтон Хестон, Софи Лорен, Раф Валлоне, Женевьев Паж, Джон Фрейзер, Гари Рэймонд, Херд Хэтфилд, Массимо Серато, Фрэнк Тринг, Майкл Хордерн, Эндрю Крикшэнк, Дуглас Уилмер, Туллио Карминати, Ральф Труман, Кристофер Родс, Карло Джустини, Жерар Тиши, Фаусто Тоцци, Барбара Эверест, Катина Ноубл, Нерио Бернарди, Франко Фантазия, Херберт Лом, Антонио Маянс, Пауль Мюллер, Розальба Нери, Виржилиу Тейшейра

О фильме: Африканский эмир Бен Юсеф, пытаясь завоевать Испанию в 1080 году, сталкивается с великим воином Родриго Диасом Де Бевара, известным в истории как Эль Сид Повелитель. Он поднялся над религиозными распрями и объединил христиан и мавров против общего врага. Борьба Эль Сида с завоевателями стоит в центре картины, но не менее важной сюжетной линией является нелегкая любовь героя к Химен, прекрасной дочери знатного графа...



Выпущено: США, Италия, Samuel Bronston Productions, Dear Film Produzione
Продолжительность: 03:08:02
Перевод: Профессиональный многоголосый, авторский одноголосый (Живов)
Субтитры: Русские, английские
Дата релиза: 17.02.2013

Файл
Кодек: Н264
Качество: BDRip (AVC) (Blu-Ray Remux (1080p))
Видео: MPEG-4 AVC, 2249 Кбит/с, 1024x436, 23.976 кадр/с
Звук: Русский, английский (AC3, 6 ch, 448 Кбит/с)

Семпл
Общее
Уникальный идентификатор : 198490022044148277140848426180635672028 (0x9553C9A7792E89CCBDE965F59CBE3DDC)
Полное имя : D:фильмыEl.Sid.1961.x264.BDRip.(AVC).ExKinoRay.mkv
Формат : Matroska
Версия формата : Version 2
Размер файла : 4,72 Гбайт
Продолжительность : 3 ч. 8 м.
Общий поток : 3595 Кбит/сек
Название фильма : El.Sid.1961.x264.BDRip.(AVC).ExKinoRay
Дата кодирования : UTC 2013-02-16 20:04:21
Программа кодирования : mkvmerge v4.0.0 ('The Stars were mine') сборка от Jun 6 2010 16:18:42
Библиотека кодирования : libebml v1.0.0 + libmatroska v1.0.0

Видео
Идентификатор : 1
Формат : AVC
Формат/Информация : Advanced Video Codec
Профиль формата : High@L4.1
Параметр CABAC формата : Да
Параметр ReFrames формата : 8 кадров
Идентификатор кодека : V_MPEG4/ISO/AVC
Продолжительность : 3 ч. 8 м.
Битрейт : 2249 Кбит/сек
Ширина : 1024 пикселя
Высота : 436 пикселей
Соотношение сторон : 2,35:1
Частота кадров : 23,976 кадра/сек
Цветовое пространство : YUV
Субдискретизация насыщенности : 4:2:0
Битовая глубина : 8 бит
Тип развёртки : Прогрессивная
Бит/(Пиксели*Кадры) : 0.210
Размер потока : 2,86 Гбайт (61%)
Заголовок : Rip by Enigma-Vladislav71
Библиотека кодирования : x264 core 129 r2245 bc13772
Настройки программы : cabac=1 / ref=8 / deblock=1:-2:-2 / analyse=0x3:0x133 / me=umh / subme=11 / psy=1 / psy_rd=1.00:0.00 / mixed_ref=1 / me_range=48 / chroma_me=1 / trellis=2 / 8x8dct=1 / cqm=0 / deadzone=21,11 / fast_pskip=0 / chroma_qp_offset=-2 / threads=3 / lookahead_threads=1 / sliced_threads=0 / nr=0 / decimate=0 / interlaced=0 / bluray_compat=0 / constrained_intra=0 / bframes=8 / b_pyramid=2 / b_adapt=2 / b_bias=0 / direct=3 / weightb=1 / open_gop=0 / weightp=2 / keyint=240 / keyint_min=23 / scenecut=40 / intra_refresh=0 / rc_lookahead=40 / rc=2pass / mbtree=1 / bitrate=2249 / ratetol=1.0 / qcomp=0.60 / qpmin=10 / qpmax=51 / qpstep=4 / cplxblur=20.0 / qblur=0.5 / ip_ratio=1.40 / aq=2:1.00
Язык : English

Аудио #1
Идентификатор : 2
Формат : AC-3
Формат/Информация : Audio Coding 3
Расширение режима : CM (complete main)
Идентификатор кодека : A_AC3
Продолжительность : 3 ч. 8 м.
Вид битрейта : Постоянный
Битрейт : 448 Кбит/сек
Каналы : 6 каналов
Расположение каналов : Front: L C R, Side: L R, LFE
Частота : 48,0 КГц
Битовая глубина : 16 бит
Метод сжатия : С потерями
Размер потока : 603 Мбайт (12%)
Заголовок : ПМ
Язык : Russian

Аудио #2
Идентификатор : 3
Формат : AC-3
Формат/Информация : Audio Coding 3
Расширение режима : CM (complete main)
Идентификатор кодека : A_AC3
Продолжительность : 3 ч. 8 м.
Вид битрейта : Постоянный
Битрейт : 448 Кбит/сек
Каналы : 6 каналов
Расположение каналов : Front: L C R, Side: L R, LFE
Частота : 48,0 КГц
Битовая глубина : 16 бит
Метод сжатия : С потерями
Размер потока : 603 Мбайт (12%)
Заголовок : АП (Живов)
Язык : English

Аудио #3
Идентификатор : 4
Формат : AC-3
Формат/Информация : Audio Coding 3
Расширение режима : CM (complete main)
Идентификатор кодека : A_AC3
Продолжительность : 3 ч. 8 м.
Вид битрейта : Постоянный
Битрейт : 448 Кбит/сек
Каналы : 6 каналов
Расположение каналов : Front: L C R, Side: L R, LFE
Частота : 48,0 КГц
Битовая глубина : 16 бит
Метод сжатия : С потерями
Размер потока : 603 Мбайт (12%)
Заголовок : английский
Язык : English

Текст #1
Идентификатор : 5
Формат : UTF-8
Идентификатор кодека : S_TEXT/UTF8
Идентификатор кодека/Информация : UTF-8 Plain Text
Язык : Russian

Текст #2
Идентификатор : 6
Формат : UTF-8
Идентификатор кодека : S_TEXT/UTF8
Идентификатор кодека/Информация : UTF-8 Plain Text
Язык : English

Меню
00:00:00.000 : en:Chapter 01
00:16:30.698 : en:Chapter 02
00:26:25.917 : en:Chapter 03
00:39:51.389 : en:Chapter 04
00:56:39.938 : en:Chapter 05
01:04:37.582 : en:Chapter 06
01:16:00.055 : en:Chapter 07
01:26:37.609 : en:Chapter 08
01:42:12.501 : en:Chapter 09
01:49:17.425 : en:Chapter 10
02:01:39.709 : en:Chapter 11
02:11:18.620 : en:Chapter 12
02:21:57.133 : en:Chapter 13
02:32:52.705 : en:Chapter 14
02:46:46.745 : en:Chapter 15
02:59:45.524 : en:Chapter 16
Релиз от:

Авторы релиза:



Скачать Эль.Сид.El.Cid.(Энтони.Манн).[1961.боевик.драма.мелодрама.военный.биография.BDRip-AVC].[MVO]+[AVO]+[Sub].torrent без регистрации
Золото ЗОЛОТАЯ РАЗДАЧА! СКАЧАННОЕ НЕ ЗАСЧИТЫВАЕТСЯ! Золото
Дата: Зарегистрирован   [ Тип: внутренний ] Как тут cкачать?
MAGNET ссылка
MAGNET ссылка


Скачать .torrent

24 KB

Статус: проверено DHT
Скачан: торрент - 116 раз, раздача полностью - 164 раз
Размер: 4,72 GB
Оценка:  - (Голосов: 0)
Поблагодарили: 1
Поделиться ссылкой на эту раздачу с друзьями:
В контактеFacebookОдноклассникиTwitterLivejournalМой МирLiveinternet
 

 
Показать сообщения:    


Вы не можете начинать темы
Вы не можете отвечать на сообщения
Вы не можете редактировать свои сообщения
Вы не можете удалять свои сообщения
Вы не можете голосовать в опросах
Вы не можете прикреплять файлы к сообщениям
Вы можете скачивать файлы