Loading...
Error

Скачать Блудливая Калифорния / Californication (сезон 06) (Том Капинос) [2013, комедия, драма, HDTVRip] [DVO (Jimmy J)] торрент без регистрации

 
Статистика раздачи
Размер:  4,09 GB   |    Скачан:  2575 раз
Сидов:  1  [  0 KB/s  ]  
 
Автор Сообщение

МихаНЕзатор

[] 

Название: Блудливая Калифорния
Оригинальное название: Californication
Год выпуска: 2013
Страна: США
Жанр: комедия, драма
Продолжительность: 06 х ~ 00:29:00
Перевод: Профессиональный (двухголосый закадровый) - Jimmy J
Субтитры: Русские
Режиссер: Том Капинос

В ролях: Дэвид Духовны, Наташа МакЭлхоун, Мадлен Мартин, Эван Хэндлер, Памела Адлон, Мадлен Зима, Каллум Кейт Ренни, Рэйчел Майнер, Карла Галло, Ева Амурри

Описание: Приключени Хэнка Муди продолжаются! По сюжету, Хэнк будет работать на Бродвее, где будут ставить мюзикл, по его книге «Бог ненавидит всех нас». В нескольких эпизодах появится Тим Минчин. Ему досталась роль Аттикуса Фетча. Его ввели в сценарий специально для того, чтобы он выступил автором саундтрека для Бродвейского мюзикла Crazy Little Thing Called Love ( «Эта сумасшедшая штучка по имени любовь»), основанного на одноименном фильме по роману Хэнка Муди. Аттикус попытается уговорить Хэнка сочинить сценарий для мюзикла, обещая ему, что вместе они превратят его в рок-оперу. Также в этом сезоне нас ждут флешбеки.

Перевод: agent_triny
Роли озвучивали: Анастасия Флигина и Дмитрий Чепусов

Ненормативная лексика.

Рип:

Качество: HDTVRip
Формат: AVI
Видео: XviD, 1500 Кбит/с, 720x400
Аудио rus: AC3, 2ch, 192Kbps
Аудио eng: AC3, 2ch, 192Kbps

27.03.2013 г. торент обновлён, добавлена 12-ая серия. Сезон полностью..

01. The Unforgiven
02. Quitters
03. Dead Rock Stars
04. Hell Bent for Leather
05. Rock and a Hard Place
06. In the Clouds / В облаках
07. Scared Straight
08. Everybody's a fucking critic
09. Mad dogs & Englishmen
10. Слепая вера / Blind Faith
Полное имя : D:Californication.S06.DVO.Jimmy.J.HDTVRipСalifornication.S06E05.HDTVRip.avi
Формат : AVI
Формат/Информация : Audio Video Interleave
Размер файла : 386 Мбайт
Продолжительность : 28 м.
Общий поток : 1898 Кбит/сек
Программа кодирования : VirtualDubMod 1.5.10.2 (build 2540/release)
Библиотека кодирования : VirtualDubMod build 2540/release

Видео
Идентификатор : 0
Формат : MPEG-4 Visual
Профиль формата : Advanced Simple@L5
Параметр BVOP формата : 1
Параметр QPel формата : Нет
Параметр GMC формата : Без точки перехода
Параметр матрицы формата : Default (MPEG)
Идентификатор кодека : XVID
Идентификатор кодека/Подсказка : XviD
Продолжительность : 28 м.
Битрейт : 1500 Кбит/сек
Ширина : 720 пикс.
Высота : 400 пикс.
Соотношение сторон : 16:9
Частота кадров : 23,976 кадр/сек
Цветовое пространство : YUV
Подвыборка цветности : 4:2:0
Битовая глубина : 8 бит
Тип развёртки : Прогрессивная
Метод сжатия : С потерями
Бит/(Пиксели*Кадры) : 0.217
Размер потока : 305 Мбайт (79%)
Библиотека кодирования : XviD 65

Аудио #1
Идентификатор : 1
Формат : AC-3
Формат/Информация : Audio Coding 3
Расширение режима : CM (complete main)
Идентификатор кодека : 2000
Продолжительность : 28 м.
Вид битрейта : Постоянный
Битрейт : 192 Кбит/сек
Каналы : 2 канала
Расположение каналов : Front: L R
Частота : 48,0 КГц
Битовая глубина : 16 бит
Метод сжатия : С потерями
Размер потока : 39,1 Мбайт (10%)
Выравнивание : Разделение по промежуткам
Продолжительность промежутка : 42 мс. (1,00 видеокадр)
Время предзагрузки промежутка : 500 ms

Аудио #2
Идентификатор : 2
Формат : AC-3
Формат/Информация : Audio Coding 3
Расширение режима : CM (complete main)
Идентификатор кодека : 2000
Продолжительность : 28 м.
Вид битрейта : Постоянный
Битрейт : 192 Кбит/сек
Каналы : 2 канала
Расположение каналов : Front: L R
Частота : 48,0 КГц
Битовая глубина : 16 бит
Метод сжатия : С потерями
Размер потока : 39,1 Мбайт (10%)
Выравнивание : Разделение по промежуткам
Продолжительность промежутка : 42 мс. (1,00 видеокадр)
Время предзагрузки промежутка : 500 ms



Скачать Блудливая.Калифорния.Californication.(сезон.06).(Том.Капинос).[2013.комедия.драма.HDTVRip].[DVO.(Jimmy.J)].torrent без регистрации
Золото ЗОЛОТАЯ РАЗДАЧА! СКАЧАННОЕ НЕ ЗАСЧИТЫВАЕТСЯ! Золото
Дата: Зарегистрирован   [ Тип: внутренний ] Как тут cкачать?
MAGNET ссылка
MAGNET ссылка


Скачать .torrent

12 KB

Статус: проверено DHT
Скачан: торрент - 2575 раз, раздача полностью - 85 раз
Размер: 4,09 GB
Оценка:  - (Голосов: 0)
Поблагодарили: 4
Поделиться ссылкой на эту раздачу с друзьями:
В контактеFacebookОдноклассникиTwitterLivejournalМой МирLiveinternet
 

 
Показать сообщения:    


Вы не можете начинать темы
Вы не можете отвечать на сообщения
Вы не можете редактировать свои сообщения
Вы не можете удалять свои сообщения
Вы не можете голосовать в опросах
Вы не можете прикреплять файлы к сообщениям
Вы можете скачивать файлы