Loading...
Error

Скачать У Фантоцци опять неприятности / Fantozzi subisce ancora (Нери Паренти) [1983, комедия, DVDRip] [MVO] торрент без регистрации

 
Статистика раздачи
Размер:  1,37 GB   |    Скачан:  171 раз
Сидов:  17  [  0 KB/s  ]  
 
Автор Сообщение

dezertir

[] 

У Фантоцци опять неприятности / Fantozzi subisce ancora (1983) DVDRip

    Информация о фильме
    Название: У Фантоцци опять неприятности
    Оригинальное название: Fantozzi subisce ancora
    Год выхода: 1983
    Жанр: комедия
    Режиссер: Нери Паренти
    В ролях: Паоло Вилладжио, Антонио Аллокка, Эннио Антонелли, Стефано Антонуччи, Уго Болонья, Карло Коломбо, Клара Колосимо, Джулио Фарнезе, Плинио Фернандо
    О фильме:
    Четвертый фильм из культовой трагикомической серии про самого нелепого и самого близкого нам героя - несчастного бухгалтера Фантоцци, на голову которого сыпятся все мыслимые и немыслимые неприятности. Один из тех фильмов, которые были на ура приняты в советском прокате, потому что были так близки и дороги сердцу каждого советского служащего.

    Страна: Италия
    Студия: Maura International Films
    Продолжительность: 01:23:47
    Перевод: Профессиональный многоголосый (закадровый)
    Файл
    Кодек: Xvid
    Качество: DVDRip
    Видео: 704x384, ~2138 Кбит/с, 25 fps
    Звук: AC3, 2ch, 192 Кбит/с
    Субтитры: Нет

    Семпл

    General
    Complete name : В:U.Fantocci.opyatj.nepriyatnosti.1983.XviD.DVDRip.avi
    Format : AVI
    Format/Info : Audio Video Interleave
    File size : 1.37 GiB
    Duration : 1h 23mn
    Overall bit rate : 2 337 Kbps
    Writing application : VirtualDubMod 1.5.4.1 (build 2178/release)
    Writing library : VirtualDubMod build 2178/release

    Video
    ID : 0
    Format : MPEG-4 Visual
    Format profile : Advanced Simple@L5
    Format settings, BVOP : 1
    Format settings, QPel : No
    Format settings, GMC : No warppoints
    Format settings, Matrix : Custom
    Codec ID : XVID
    Codec ID/Hint : XviD
    Duration : 1h 23mn
    Bit rate : 2 138 Kbps
    Width : 704 pixels
    Height : 384 pixels
    Display aspect ratio : 1.85:1
    Frame rate : 25.000 fps
    Color space : YUV
    Chroma subsampling : 4:2:0
    Bit depth : 8 bits
    Scan type : Progressive
    Compression mode : Lossy
    Bits/(Pixel*Frame) : 0.316
    Stream size : 1.25 GiB (91%)
    Writing library : XviD 1.2.0.dev47 (UTC 2006-11-01)

    Audio
    ID : 1
    Format : AC-3
    Format/Info : Audio Coding 3
    Mode extension : CM (complete main)
    Format settings, Endianness : Big
    Codec ID : 2000
    Duration : 1h 23mn
    Bit rate mode : Constant
    Bit rate : 192 Kbps
    Channel(s) : 2 channels
    Channel positions : Front: L R
    Sampling rate : 48.0 KHz
    Bit depth : 16 bits
    Compression mode : Lossy
    Stream size : 115 MiB (8%)
    Alignment : Split accross interleaves
    Interleave, duration : 96 ms (2.40 video frames)
    Interleave, preload duration : 96 ms
    Language : Russian



    Скачать У.Фантоцци.опять.неприятности.Fantozzi.subisce.ancora.(Нери.Паренти).[1983.комедия.DVDRip].[MVO].torrent без регистрации
    Золото ЗОЛОТАЯ РАЗДАЧА! СКАЧАННОЕ НЕ ЗАСЧИТЫВАЕТСЯ! Золото
    Дата: Зарегистрирован   [ Тип: внешний ] Как тут cкачать?
    MAGNET ссылка
    MAGNET ссылка


    Скачать .torrent

    14 KB

    Статус: проверено DHT
    Скачан: торрент - 171 раз, раздача полностью - 132 раз
    Размер: 1,37 GB
    Оценка:  5 (Голосов: 1)
    Поблагодарили: 3
    Поделиться ссылкой на эту раздачу с друзьями:
    В контактеFacebookОдноклассникиTwitterLivejournalМой МирLiveinternet
     

     
    Показать сообщения:    


    Вы не можете начинать темы
    Вы не можете отвечать на сообщения
    Вы не можете редактировать свои сообщения
    Вы не можете удалять свои сообщения
    Вы не можете голосовать в опросах
    Вы не можете прикреплять файлы к сообщениям
    Вы можете скачивать файлы