Loading...
Error

Скачать Имитатор / Copycat (Джон Эмиел) [1995, ужасы, триллер, криминал, детектив, BDRip-AVC] [MVO]+[AVO]+[Sub] торрент без регистрации

 
Статистика раздачи
Размер:  2,78 GB   |    Скачан:  132 раза
Сидов:  1  [  0 KB/s  ]  
 
Автор Сообщение

Marsianka

[] 

Имитатор / Copycat

Слоган: «One man is copying the most notorious killers in history one at a time. Together, two women must stop him from killing again. Or they're next.»

Русское название: Имитатор
Оригинальное название: Copycat
Год выпуска: 1995
Страна: США
Жанр: ужасы, триллер, криминал, детектив
Продолжительность: 02:03:05
Перевод: Профессиональный (многоголосый закадровый), Авторский (одноголосый)
Язык субтитров: Русские

Режиссер: Джон Эмиел

Актеры: Сигурни Уивер (Helen Hudson), Холли Хантер (M.J. Monahan), Дермот Малруни (Reuben Goetz), Уильям МакНамара (Peter Foley), Гарри Конник мл. (Daryll Lee Cullum), Дж.Э. Фримен (Lt. Thomas Quinn), Уилл Пэттон (Nicoletti), Джон Ротмен (Andy), Шэннон ОХёрли (Susan Schiffer), Боб Грин (Pachulski), Тони Хейни (Kerby), Дэнни Ковач (Kostas)

Описание фильма:
Сан-Франциско потрясен серией жестоких убийств, каждое из которых копирует аналогичные преступления, совершенные в прошлом разными маньяками. Чтобы остановить волну убийств, сотрудница полиции Эм Джей Монахан обращается за помощью к доктору Хелен Хадсон, специалисту по психологии маньяков.



Качество: BDRip-AVC
Видео: H.264, 1152x480,~1820 Кбит/с
Аудио 1: Русский; AC3; 384 Kbps; CBR; 6 ch - Многоголосый ("Гемини Фильм")
Аудио 2: Русский; AC3; 192 Kbps; CBR; 2 ch - Многоголосый ("Первый канал")
Аудио 3: Русский; AC3; 192 Kbps; CBR; 2 ch - (Гаврилов)
Аудио 4: Русский; AC3; 192 Kbps; CBR; 2 ch - (Горчаков)
Аудио 5: Англ-ий; AC3; 448 Kbps; CBR; 6 ch - оригинал
Format : Matroska
Format version : Version 2
File size : 2.78 GiB
Duration : 2h 3mn
Overall bit rate : 3 230 Kbps
Encoded date : UTC 2011-08-11 19:15:00
Writing application : mkvmerge v4.6.0 ('Still Crazy After All These Years') сборка от Apr 1 2011 21:01:49
Writing library : libebml v1.2.0 + libmatroska v1.1.0

Video
ID : 1
Format : AVC
Format/Info : Advanced Video Codec
Format profile : High@L3.1
Format settings, CABAC : Yes
Format settings, ReFrames : 8 frames
Codec ID : V_MPEG4/ISO/AVC
Duration : 2h 3mn
Bit rate : 1 820 Kbps
Width : 1 152 pixels
Height : 480 pixels
Display aspect ratio : 2.40:1
Frame rate : 23.976 fps
Color space : YUV
Chroma subsampling : 4:2:0
Bit depth : 8 bits
Scan type : Progressive
Bits/(Pixel*Frame) : 0.137
Stream size : 1.51 GiB (54%)
Writing library : x264 core 115 r1937 aa21558
Encoding settings : cabac=1 / ref=8 / deblock=1:-1:-1 / analyse=0x3:0x133 / me=umh / subme=7 / psy=1 / psy_rd=1.00:0.10 / mixed_ref=1 / me_range=16 / chroma_me=1 / trellis=2 / 8x8dct=1 / cqm=0 / deadzone=21,11 / fast_pskip=0 / chroma_qp_offset=-3 / threads=6 / sliced_threads=0 / nr=0 / decimate=1 / interlaced=0 / bluray_compat=0 / constrained_intra=0 / bframes=3 / b_pyramid=2 / b_adapt=2 / b_bias=0 / direct=3 / weightb=1 / open_gop=0 / weightp=2 / keyint=250 / keyint_min=23 / scenecut=40 / intra_refresh=0 / rc_lookahead=50 / rc=2pass / mbtree=1 / bitrate=1820 / ratetol=1.0 / qcomp=0.60 / qpmin=0 / qpmax=69 / qpstep=4 / cplxblur=20.0 / qblur=0.5 / ip_ratio=1.40 / aq=1:1.00
Language : English
Default : Yes
Forced : No

Audio #1
ID : 2
Format : AC-3
Format/Info : Audio Coding 3
Mode extension : CM (complete main)
Format settings, Endianness : Big
Codec ID : A_AC3
Duration : 2h 3mn
Bit rate mode : Constant
Bit rate : 384 Kbps
Channel(s) : 6 channels
Channel positions : Front: L C R, Side: L R, LFE
Sampling rate : 48.0 KHz
Bit depth : 16 bits
Compression mode : Lossy
Stream size : 338 MiB (12%)
Title : Гемини Фильм
Language : Russian
Default : Yes
Forced : No

Audio #2
ID : 3
Format : AC-3
Format/Info : Audio Coding 3
Mode extension : CM (complete main)
Format settings, Endianness : Big
Codec ID : A_AC3
Duration : 2h 3mn
Bit rate mode : Constant
Bit rate : 192 Kbps
Channel(s) : 2 channels
Channel positions : Front: L R
Sampling rate : 48.0 KHz
Bit depth : 16 bits
Compression mode : Lossy
Stream size : 169 MiB (6%)
Title : Первый канал?
Language : Russian
Default : No
Forced : No

Audio #3
ID : 4
Format : AC-3
Format/Info : Audio Coding 3
Mode extension : CM (complete main)
Format settings, Endianness : Big
Codec ID : A_AC3
Duration : 2h 3mn
Bit rate mode : Constant
Bit rate : 192 Kbps
Channel(s) : 2 channels
Channel positions : Front: L R
Sampling rate : 48.0 KHz
Bit depth : 16 bits
Compression mode : Lossy
Stream size : 169 MiB (6%)
Title : Андрей Гаврилов
Language : Russian
Default : No
Forced : No

Audio #4
ID : 5
Format : AC-3
Format/Info : Audio Coding 3
Mode extension : CM (complete main)
Format settings, Endianness : Big
Codec ID : A_AC3
Duration : 2h 3mn
Bit rate mode : Constant
Bit rate : 192 Kbps
Channel(s) : 2 channels
Channel positions : Front: L R
Sampling rate : 48.0 KHz
Bit depth : 16 bits
Compression mode : Lossy
Stream size : 169 MiB (6%)
Title : Василий Горчаков
Language : Russian
Default : No
Forced : No

Audio #5
ID : 6
Format : AC-3
Format/Info : Audio Coding 3
Mode extension : CM (complete main)
Format settings, Endianness : Big
Codec ID : A_AC3
Duration : 2h 3mn
Bit rate mode : Constant
Bit rate : 448 Kbps
Channel(s) : 6 channels
Channel positions : Front: L C R, Side: L R, LFE
Sampling rate : 48.0 KHz
Bit depth : 16 bits
Compression mode : Lossy
Stream size : 394 MiB (14%)
Title : ORIGINAL
Language : English
Default : No
Forced : No

Text
ID : 7
Format : UTF-8
Codec ID : S_TEXT/UTF8
Codec ID/Info : UTF-8 Plain Text
Language : Russian
Default : Yes
Forced : No



Скачать Имитатор.Copycat.(Джон.Эмиел).[1995.ужасы.триллер.криминал.детектив.BDRip-AVC].[MVO]+[AVO]+[Sub].torrent без регистрации
Золото ЗОЛОТАЯ РАЗДАЧА! СКАЧАННОЕ НЕ ЗАСЧИТЫВАЕТСЯ! Золото
Дата: Зарегистрирован   [ Тип: внутренний ] Как тут cкачать?
MAGNET ссылка
MAGNET ссылка


Скачать .torrent

14 KB

Статус: проверено DHT
Скачан: торрент - 132 раз, раздача полностью - 3 раз
Размер: 2,78 GB
Оценка:  - (Голосов: 0)
Поблагодарили: 0
Поделиться ссылкой на эту раздачу с друзьями:
В контактеFacebookОдноклассникиTwitterLivejournalМой МирLiveinternet
 

 
Показать сообщения:    


Вы не можете начинать темы
Вы не можете отвечать на сообщения
Вы не можете редактировать свои сообщения
Вы не можете удалять свои сообщения
Вы не можете голосовать в опросах
Вы не можете прикреплять файлы к сообщениям
Вы можете скачивать файлы