Loading...
Error

Скачать Тайный поклонник / Secret Admirer (Дэвид Гринуолт) [1985, мелодрама, комедия, DVDRip-AVC] [VO]+[DVO]+[Оригинал]+[Sub] торрент без регистрации

 
Статистика раздачи
Размер:  2,1 GB   |    Скачан:  112 раз
Сидов:  1  [  0 KB/s  ]  
 
Автор Сообщение

Marsianka

[] 

Страна: США
Жанр: мелодрама, комедия
Год выпуска: 1985
Продолжительность: 01:38:03
Перевод: Любительский (одноголосый)[Andron1818] + Профессиональный (двухголосый, закадровый)[студия ELROM] + Оригинальный
Субтитры: русские, английские.
Режиссер: Дэвид Гринуолт / David Greenwalt
В ролях: Си Томас Хауэлл (Michael Ryan), Лори Лафлин (Toni), Келли Престон (Deborah Anne Fimple), Ди Уоллес-Стоун (Connie Ryan), Клифф Де Янг (George Ryan), Ли Тейлор-Янг (Elizabeth Fimple), Фред Уорд (Lou Fimple), Кэйси Семашко (Roger Despard), Джеффри Блейк (Ricardo), Родни Пирсон (Kirkpatrick), Кортни Гейнс (Doug), Дж.Дж. Коэн (Barry)
Описание: Любовное письмо, написанное школьницей старших классов, попадает не в те руки, после чего начинается серия комических эпизодов. Ее одноклассники, да и родители стали участниками этой милой комедии ошибок.


MPAA: R - Лицам до 17 лет обязательно присутствие взрослого
Семпл
Качество: DVDRip
Контейнер: MKV

Видео: AVC, 706x468 @ 836x468 (16:9), 2487 kbps, 23.976 fps, 0.314 bpp
Аудио 1: русский / AC3 / 2.0 / 48 kHz / 192 kbps
Аудио 2: русский / AC3 / 2.0 / 48 kHz / 192 kbps
Аудио 3: английский / AC3 / 2.0 / 48 kHz / 192 kbps
Навигация по главам: есть

General
Unique ID : 217834776854989889070125934785813748070 (0xA3E173B42296A1C0997CE8B209431966)
Complete name : C:TorrentPoklonnik.DVDRipAVC.mkv
Format : Matroska
Format version : Version 2
File size : 2.10 GiB
Duration : 1h 38mn
Overall bit rate : 3 065 Kbps
Movie name : = Тайный поклонник / Secret Admirer DVDRip by SC Kosmos =
Encoded date : UTC 2013-02-17 13:55:13
Writing application : mkvmerge v3.3.0 ('Language') gebaut am Mar 24 2010 14:59:24
Writing library : libebml v0.8.0 + libmatroska v0.9.0

Video
ID : 1
Format : AVC
Format/Info : Advanced Video Codec
Format profile : High@L4.1
Format settings, CABAC : Yes
Format settings, ReFrames : 8 frames
Codec ID : V_MPEG4/ISO/AVC
Duration : 1h 38mn
Bit rate : 2 487 Kbps
Width : 706 pixels
Height : 468 pixels
Display aspect ratio : 16:9
Original display aspect ratio : 16:9
Frame rate : 23.976 fps
Color space : YUV
Chroma subsampling : 4:2:0
Bit depth : 8 bits
Scan type : Progressive
Bits/(Pixel*Frame) : 0.314
Stream size : 1.66 GiB (79%)
Title : Тайный поклонник / Secret Admirer DVDRip by SC Kosmos
Writing library : x264 core 129 r2245 bc13772
Encoding settings : cabac=1 / ref=8 / deblock=1:-2:-2 / analyse=0x3:0x112 / me=umh / subme=11 / psy=1 / psy_rd=1.00:0.15 / mixed_ref=1 / me_range=32 / chroma_me=1 / trellis=2 / 8x8dct=1 / cqm=0 / deadzone=21,11 / fast_pskip=1 / chroma_qp_offset=-3 / threads=12 / lookahead_threads=2 / sliced_threads=0 / nr=0 / decimate=1 / interlaced=0 / bluray_compat=0 / constrained_intra=0 / bframes=8 / b_pyramid=2 / b_adapt=1 / b_bias=0 / direct=3 / weightb=1 / open_gop=0 / weightp=1 / keyint=240 / keyint_min=23 / scenecut=40 / intra_refresh=0 / rc=2pass / mbtree=0 / bitrate=2487 / ratetol=1.0 / qcomp=0.60 / qpmin=0 / qpmax=69 / qpstep=4 / cplxblur=20.0 / qblur=0.5 / ip_ratio=1.40 / pb_ratio=1.30 / aq=1:1.00
Language : English
Default : No
Forced : No

Audio #1
ID : 2
Format : AC-3
Format/Info : Audio Coding 3
Mode extension : CM (complete main)
Codec ID : A_AC3
Duration : 1h 38mn
Bit rate mode : Constant
Bit rate : 192 Kbps
Channel(s) : 2 channels
Channel positions : Front: L R
Sampling rate : 48.0 KHz
Bit depth : 16 bits
Compression mode : Lossy
Stream size : 135 MiB (6%)
Title : AVO [Andron1818]
Language : Russian
Default : Yes
Forced : No

Audio #2
ID : 3
Format : AC-3
Format/Info : Audio Coding 3
Mode extension : CM (complete main)
Codec ID : A_AC3
Duration : 1h 38mn
Bit rate mode : Constant
Bit rate : 192 Kbps
Channel(s) : 2 channels
Channel positions : Front: L R
Sampling rate : 48.0 KHz
Bit depth : 16 bits
Compression mode : Lossy
Stream size : 135 MiB (6%)
Title : DVO [студия ELROM]
Language : Russian
Default : No
Forced : No

Audio #3
ID : 4
Format : AC-3
Format/Info : Audio Coding 3
Mode extension : CM (complete main)
Codec ID : A_AC3
Duration : 1h 38mn
Bit rate mode : Constant
Bit rate : 192 Kbps
Channel(s) : 2 channels
Channel positions : Front: L R
Sampling rate : 48.0 KHz
Bit depth : 16 bits
Compression mode : Lossy
Stream size : 135 MiB (6%)
Language : English
Default : No
Forced : No

Text #1
ID : 5
Format : UTF-8
Codec ID : S_TEXT/UTF8
Codec ID/Info : UTF-8 Plain Text
Language : Russian
Default : Yes
Forced : No

Text #2
ID : 6
Format : UTF-8
Codec ID : S_TEXT/UTF8
Codec ID/Info : UTF-8 Plain Text
Language : English
Default : No
Forced : No

Menu
00:00:00.000 : en:Chapter 01
00:05:55.168 : en:Chapter 02
00:10:20.802 : en:Chapter 03
00:17:18.302 : en:Chapter 04
00:21:36.236 : en:Chapter 05
00:27:41.070 : en:Chapter 06
00:29:25.070 : en:Chapter 07
00:32:14.070 : en:Chapter 08
00:36:21.570 : en:Chapter 09
00:41:55.104 : en:Chapter 10
00:47:14.404 : en:Chapter 11
00:51:24.904 : en:Chapter 12
00:55:09.738 : en:Chapter 13
00:57:49.106 : en:Chapter 14
01:00:44.606 : en:Chapter 15
01:05:01.540 : en:Chapter 16
01:05:56.907 : en:Chapter 17
01:09:49.808 : en:Chapter 18
01:13:42.308 : en:Chapter 19
01:19:42.975 : en:Chapter 20
01:22:59.309 : en:Chapter 21
01:26:19.309 : en:Chapter 22
01:32:50.809 : en:Chapter 23
01:34:25.976 : en:Chapter 24




Скачать Тайный.поклонник.Secret.Admirer.(Дэвид.Гринуолт).[1985.мелодрама.комедия.DVDRip-AVC].[VO]+[DVO]+[Оригинал]+[Sub].torrent без регистрации
Золото ЗОЛОТАЯ РАЗДАЧА! СКАЧАННОЕ НЕ ЗАСЧИТЫВАЕТСЯ! Золото
Дата: Зарегистрирован   [ Тип: внутренний ] Как тут cкачать?
MAGNET ссылка
MAGNET ссылка


Скачать .torrent

11 KB

Статус: проверено DHT
Скачан: торрент - 112 раз, раздача полностью - 5 раз
Размер: 2,1 GB
Оценка:  - (Голосов: 0)
Поблагодарили: 1
Поделиться ссылкой на эту раздачу с друзьями:
В контактеFacebookОдноклассникиTwitterLivejournalМой МирLiveinternet
 

 
Показать сообщения:    


Вы не можете начинать темы
Вы не можете отвечать на сообщения
Вы не можете редактировать свои сообщения
Вы не можете удалять свои сообщения
Вы не можете голосовать в опросах
Вы не можете прикреплять файлы к сообщениям
Вы можете скачивать файлы