Loading...
Error

Скачать Легенда адского дома / The Legend of Hell House (Джон Хаф) [1973, ужасы, детектив, HDTVRip-AVC] [AVO]+[Sub] торрент без регистрации

 
Статистика раздачи
Размер:  2,35 GB   |    Скачан:  116 раз
Сидов:  1  [  0 KB/s  ]  
 
Автор Сообщение

Marsianka

[] 

Информация о фильме
Название: Легенда адского дома
Оригинальное название: The Legend of Hell House
Год выхода: 1973
Жанр: ужасы, детектив
Режиссер: Джон Хаф
В ролях: Памела Фрэнклин, Родди МакДауэлл, Клайв Ревилл, Гэйл Ханникат, Роланд Калвер, Питер Боулз, Майкл Гоф

О фильме: Умирающий миллионер Рудольф Дойч, который хочет исследовать возможность жизни после смерти, нанимает четверых ученых, чтобы они провели одну неделю в здании, известном под названием «Адский дом», в котором, как считается, обитают привидения. Физик Лайонелл Барретт, его жена Энн и двое медиумов-экстрасенсов, Флоренс Таннер и Бенджамин Фишер, прибывают в дом Эмерика Веласко, жестокого садиста. В конце двадцатых годов в доме было обнаружено множество трупов пришедших к Веласко гостей, но тело самого хозяина так никогда и не нашли



Выпущено: Великобритания, Academy Pictures Corporation
Продолжительность: 01:33:50
Перевод: Авторский (одноголосый, закадровый) Сергей Визгунов

Файл
Кодек: x264
Качество: HDTVRip-AVC
Видео: MPEG-4 AVC, 3000 Кбит/с, 1024x576, 23,976 кадр/сек
Звук: Русский (AC3, 2 ch, 192 Кбит/с), английский (AC3, 2 ch, 384 Кбит/с)
Субтитры: Английские

Семпл
Общее
Уникальный идентификатор : 210544005706220637039638713291298711059 (0x9E654CEEE25FBD9DAEDABF35998A2613)
Полное имя : D:ТоррентыLegenda.adskogo.doma.1973.x264.HDTVRip.(AVC)-NovaLan.mkv
Формат : Matroska
Версия формата : Version 2
Размер файла : 2,35 Гбайт
Продолжительность : 1 ч. 33 м.
Общий поток : 3576 Кбит/сек
Название фильма : Релиз от NovaLan (alek7120)
Дата кодирования : UTC 2013-02-20 13:34:31
Программа кодирования : mkvmerge v5.6.0 ('Kenya Kane') built on May 27 2012 16:44:04
Библиотека кодирования : libebml v1.2.3 + libmatroska v1.3.0

Видео
Идентификатор : 1
Формат : AVC
Формат/Информация : Advanced Video Codec
Профиль формата : High@L4.1
Параметр CABAC формата : Да
Параметр ReFrames формата : 8 кадров
Идентификатор кодека : V_MPEG4/ISO/AVC
Продолжительность : 1 ч. 33 м.
Битрейт : 3000 Кбит/сек
Ширина : 1024 пикселя
Высота : 576 пикселей
Соотношение сторон : 16:9
Частота кадров : 23,976 кадра/сек
Цветовое пространство : YUV
Субдискретизация насыщенности : 4:2:0
Битовая глубина : 8 бит
Тип развёртки : Прогрессивная
Бит/(Пиксели*Кадры) : 0.212
Размер потока : 1,92 Гбайт (82%)
Библиотека кодирования : x264 core 125 r2208 d9d2288
Настройки программы : cabac=1 / ref=8 / deblock=1:-2:-2 / analyse=0x3:0x133 / me=umh / subme=11 / psy=1 / psy_rd=1.00:0.15 / mixed_ref=1 / me_range=48 / chroma_me=0 / trellis=2 / 8x8dct=1 / cqm=0 / deadzone=21,11 / fast_pskip=0 / chroma_qp_offset=-3 / threads=6 / lookahead_threads=1 / sliced_threads=0 / nr=0 / decimate=0 / interlaced=0 / bluray_compat=0 / constrained_intra=0 / bframes=8 / b_pyramid=2 / b_adapt=2 / b_bias=0 / direct=3 / weightb=1 / open_gop=1 / weightp=2 / keyint=240 / keyint_min=23 / scenecut=40 / intra_refresh=0 / rc_lookahead=50 / rc=2pass / mbtree=1 / bitrate=3000 / ratetol=1.0 / qcomp=0.60 / qpmin=0 / qpmax=69 / qpstep=4 / cplxblur=20.0 / qblur=0.5 / ip_ratio=1.40 / aq=1:1.00
Язык : English
Default : Да
Forced : Нет

Аудио #1
Идентификатор : 2
Формат : AC-3
Формат/Информация : Audio Coding 3
Расширение режима : CM (complete main)
Параметр Endianness формата : Big
Идентификатор кодека : A_AC3
Продолжительность : 1 ч. 33 м.
Вид битрейта : Постоянный
Битрейт : 192 Кбит/сек
Каналы : 2 канала
Расположение каналов : Front: L R
Частота : 48,0 КГц
Битовая глубина : 16 бит
Метод сжатия : С потерями
Размер потока : 129 Мбайт (5%)
Заголовок : Авторский (одноголосый, закадровый) - Сергей Визгунов
Язык : Russian
Default : Да
Forced : Нет

Аудио #2
Идентификатор : 3
Формат : AC-3
Формат/Информация : Audio Coding 3
Расширение режима : CM (complete main)
Параметр Endianness формата : Big
Идентификатор кодека : A_AC3
Продолжительность : 1 ч. 33 м.
Вид битрейта : Постоянный
Битрейт : 384 Кбит/сек
Каналы : 2 канала
Расположение каналов : Front: L R
Частота : 48,0 КГц
Битовая глубина : 16 бит
Метод сжатия : С потерями
Размер потока : 258 Мбайт (11%)
Заголовок : Оригинал (английский)
Язык : English
Default : Нет
Forced : Нет

Текст
Идентификатор : 4
Формат : UTF-8
Идентификатор кодека : S_TEXT/UTF8
Идентификатор кодека/Информация : UTF-8 Plain Text
Заголовок : английские
Язык : English
Default : Да
Forced : Нет
Релиз от:
Автор рипа:



Скачать Легенда.адского.дома.The.Legend.of.Hell.House.(Джон.Хаф).[1973.ужасы.детектив.HDTVRip-AVC].[AVO]+[Sub].torrent без регистрации
Золото ЗОЛОТАЯ РАЗДАЧА! СКАЧАННОЕ НЕ ЗАСЧИТЫВАЕТСЯ! Золото
Дата: Зарегистрирован   [ Тип: внутренний ] Как тут cкачать?
MAGNET ссылка
MAGNET ссылка


Скачать .torrent

12 KB

Статус: проверено DHT
Скачан: торрент - 116 раз, раздача полностью - 4 раз
Размер: 2,35 GB
Оценка:  - (Голосов: 0)
Поблагодарили: 1
Поделиться ссылкой на эту раздачу с друзьями:
В контактеFacebookОдноклассникиTwitterLivejournalМой МирLiveinternet
 

 
Показать сообщения:    


Вы не можете начинать темы
Вы не можете отвечать на сообщения
Вы не можете редактировать свои сообщения
Вы не можете удалять свои сообщения
Вы не можете голосовать в опросах
Вы не можете прикреплять файлы к сообщениям
Вы можете скачивать файлы