Loading...
Error

Скачать Черное зеркало / Black Mirror (сезон 02) (Otto Bathurst, Euros Lyn, Brian Welsh) [2013, драма, HDTVRip] [MVO (Кубик в Кубе)] торрент без регистрации

Статистика раздачи
Размер:  1,58 GB   |    Скачан:  232 раза
Сидов:  1  [  0 KB/s  ]  
 
 
 
Автор Сообщение

МихаНЕзатор

[] 

Информация о фильме
Название: Черное зеркало
Оригинальное название: Black Mirror
Сезон 2 / Серия 1 из 3 - Be Right Back
Год выхода: 2013
Жанр: драма
Страна: Великобритания | Zeppotron
Режиссер: Otto Bathurst, Euros Lyn, Brian Welsh

В ролях: Rory Kinnear, Lindsay Duncan, Tom Goodman-Hill, Donald Sumpter and Anna Wilson-Jones, Daniel Kayluuya, Jessica Brown Findlay, Rupert Everett, Julia Davis, Ashley Thomas, Toby Kebbell, Jodie Whittaker and Tom Cullen

Описание: За последние десять лет технологии всесторонне изменили нашу жизнь, прежде чем мы успели опомниться и усомниться в них. В каждом доме, на каждом столе, на каждой ладони - плазменный телевизор, монитор компьютера, дисплей смартфона - черное зеркало нашего существования в двадцать первом веке. Наша связь с реальностью меняется. Мы возложили на алтарь «Google» и «Apple» и поклоняемся им. «Facebook» алгоритмы знают о нас больше, чем наши собственные родители. У нас есть доступ ко всей информации в мире, но в голове хватает места лишь для того, чтобы воспринять 140 символов из сообщения в твиттере. В «Чёрном зеркале» отображается всеобщее беспокойство за наш современный мир. Этот увлекательный мини-сериал состоит из трёх несвязанных между собой эпизодов, которые наполнены острой сатирой и завязаны на параноидальной зависимости людей от современных технологий.



Продолжительность: 00:50:00
Качество видео: HDTVRip
Формат файла: AVI
Перевод: Профессиональный двухголосый закадровый | Кубик в Кубе
[b]Видеопоток:
704x352 (2.00:1), 25 fps, XviD build 65 ~1522 kbps avg, 0.25 bit/pixel
Аудиопоток 1: 48 kHz, MPEG Layer 3, 2 ch, ~224.00 kbps avg | Кубик в Кубе
Аудиопоток 2: 48 kHz, MPEG Layer 3, 2 ch, ~224.00 kbps avg | Оригинал

Релиз группы: &

28.05.2013 г. торент обновлён, добавлена 3-я серия, сезон полностью!
Озвучка: Кубик в Кубе
Перевод: El_Brujo
Рип: ЛП
Постер: Dramor Tram
При поддержке: AviaSales
Общее
Полное имя : D:incomingBlack.Mirror.s02-01.avi
Формат : AVI
Формат/Информация : Audio Video Interleave
Размер файла : 686 Мбайт
Продолжительность : 48 м.
Общий поток : 1986 Кбит/сек
Программа кодирования : VirtualDubMod 1.5.10.2 (build 2540/release)
Библиотека кодирования : VirtualDubMod build 2540/release

Видео
Идентификатор : 0
Формат : MPEG-4 Visual
Профиль формата : Advanced Simple@L5
Параметр BVOP формата : 1
Параметр QPel формата : Нет
Параметр GMC формата : Без точки перехода
Параметр матрицы формата : Default (MPEG)
Идентификатор кодека : XVID
Идентификатор кодека/Подсказка : XviD
Продолжительность : 48 м.
Битрейт : 1524 Кбит/сек
Ширина : 704 пикселя
Высота : 352 пикселя
Соотношение сторон : 2,000
Частота кадров : 25,000 кадров/сек
Цветовое пространство : YUV
Субдискретизация насыщенности : 4:2:0
Битовая глубина : 8 бит
Тип развёртки : Прогрессивная
Метод сжатия : С потерями
Бит/(Пиксели*Кадры) : 0.246
Размер потока : 527 Мбайт (77%)
Библиотека кодирования : XviD 65

Аудио #1
Идентификатор : 1
Формат : MPEG Audio
Версия формата : Version 1
Профиль формата : Layer 3
Идентификатор кодека : 55
Идентификатор кодека/Подсказка : MP3
Продолжительность : 48 м.
Вид битрейта : Постоянный
Битрейт : 224 Кбит/сек
Каналы : 2 канала
Частота : 48,0 КГц
Метод сжатия : С потерями
Размер потока : 77,4 Мбайт (11%)
Выравнивание : Соединение по промежуткам
Продолжительность промежутка : 40 мс. (1,00 видеокадр)
Время предзагрузки промежутка : 504 мс.

Аудио #2
Идентификатор : 2
Формат : MPEG Audio
Версия формата : Version 1
Профиль формата : Layer 3
Режим : Joint stereo
Расширение режима : MS Stereo
Идентификатор кодека : 55
Идентификатор кодека/Подсказка : MP3
Продолжительность : 48 м.
Вид битрейта : Постоянный
Битрейт : 224 Кбит/сек
Каналы : 2 канала
Частота : 48,0 КГц
Метод сжатия : С потерями
Размер потока : 77,4 Мбайт (11%)
Выравнивание : Соединение по промежуткам
Продолжительность промежутка : 40 мс. (1,00 видеокадр)
Время предзагрузки промежутка : 504 мс.
Библиотека кодирования : LAME3.99r
Настройки программы : -m j -V 4 -q 2 -lowpass 19.4 -b 224
Чтобы начать докачку новой серии, пользователям необходимо сделать следующее:
1. остановить скачивание
2. удалить старый торрент у себя из клиента (старые серии удалять не надо)
3. скачать новый торрент и запустить его у себя в клиенте вместо старого, при этом указать клиенту путь в старую папку куда и должно происходить скачивание новых серий.

Ваш клиент при этом должен произвести хеширование (проверку) старой папки (если не производит сам - помогите ему сделать это), и будет докачивать только те серии которых у вас ещё нет. Старые серии при этом не удаляются, а продолжают раздаваться!

Eсли вы уже удалили старые серии, то предотвратить повторную закачку старых серий можно, отжав галочку в соответсвующих местах при запуске нового торрента.




Скачать Черное.зеркало.Black.Mirror.(сезон.02).(Otto.Bathurst.Euros.Lyn.Brian.Welsh).[2013.драма.HDTVRip].[MVO.(Кубик.в.Кубе)].torrent без регистрации
Золото ЗОЛОТАЯ РАЗДАЧА! СКАЧАННОЕ НЕ ЗАСЧИТЫВАЕТСЯ! Золото
Дата: Зарегистрирован   [ Тип: внутренний ] Как тут cкачать?
MAGNET ссылка
MAGNET ссылка


Скачать .torrent

17 KB

Статус: проверено DHT
Скачан: торрент - 232 раз, раздача полностью - 209 раз
Размер: 1,58 GB
Оценка:  5 (Голосов: 1)
Поблагодарили: 3
Поделиться ссылкой на эту раздачу с друзьями:
В контактеFacebookОдноклассникиTwitterLivejournalМой МирLiveinternet
 

 

МихаНЕзатор

[] 

Раздача обновлена
 
Показать сообщения:    


Вы не можете начинать темы
Вы не можете отвечать на сообщения
Вы не можете редактировать свои сообщения
Вы не можете удалять свои сообщения
Вы не можете голосовать в опросах
Вы не можете прикреплять файлы к сообщениям
Вы можете скачивать файлы