Loading...
Error

Скачать Плачущий убийца / Crying Freeman (Кристоф Ганс) [1995, боевик, криминал, DVDRip] [DVO]+[MVO]+[AVO] торрент без регистрации

 
Статистика раздачи
Размер:  2,06 GB   |    Скачан:  136 раз
Сидов:  1  [  0 KB/s  ]  
 
Автор Сообщение

Marsianka

[] 



Информация о фильме
Название: Плачущий убийца
Оригинальное название: Crying Freeman
Год выхода: 1995
Жанр: боевик, криминал
Режиссер: Кристоф Ганс /Christophe Gans
В ролях: Марк Дакаскос (Yo Hinomura / Freeman), Джули Кондра (Emu O'Hara), Джерри Вассерман (Chief Randall), Рэй Доун Чонг ( Detective Forge), Чеки Каприо ( Detective Netah), Дэбби Подовски (Customs Agent), Мюррэй Лоури (Head Customs Agent), Байрон Мэнн (Koh), Микал Тэнг (Koh's Driver), Кеван Охтци (Takeshi Shimazaki), Мако (Shudo Shimazaki), Масая Като (Ryuji Hanada), Ёко Симада (Lady Hanada)

О фильме:
Молодого художника Йо Хиномура похищают и «перепрограммируют» в «Освободителя» изощренного элитного убийцу, обладающего безграничными, почти фантастическими возможностями, способного ликвидировать даже главарей японской якудзы, главных противников его повелителей, Сынов Дракона.
Красавица Эму О'Хара оказывается случайной свидетельницей одного из убийств, совершенных Йо. Традиция «убийц освободителей» требует, чтобы она погибла от его руки. Вместо этого, они влюбляются друг в друга и начинают одиссею страсти и насилия.




Страна: Канада, США, Франция, Япония
Продолжительность: 01:37:29
Перевод: Профессиональный (двухголосый закадровый) (R5), Профессиональный (многолосый закадровый) (Россия), Авторский (одноголосый закадровый) А. Гаврилов

Файл
Кодек: XviD
Качество: DVDRip
Видео: 720 x 320, 25.000 fps, 2 228 Kbps
Аудио 1 : 48 kHz, AC3, 5.1 ch, 384 kbps...........Профессиональный (двухголосый закадровый) (R5)
Аудио 2 : 48 kHz, AC3, 2 ch, 192.00 kbps..........Профессиональный (многолосый закадровый) (Россия)
Аудио 3 : 48 kHz, AC3, 2 ch, 192.00 kbps..........Авторский (одноголосый закадровый) А. Гаврилов
General
Complete name : Plachushiy.Ubiyca.1995.DVDRip.3xRus.avi
Format : AVI
Format/Info : Audio Video Interleave
Format profile : OpenDML
File size : 2.06 GiB
Duration : 1h 37mn
Overall bit rate : 3 022 Kbps
Writing application : VirtualDubMod 1.5.10.2 (build 2542/release)
Writing library : VirtualDubMod build 2542/release

Video
ID : 0
Format : MPEG-4 Visual
Format profile : Advanced Simple@L5
Format settings, BVOP : 1
Format settings, QPel : No
Format settings, GMC : No warppoints
Format settings, Matrix : Custom
Codec ID : XVID
Codec ID/Hint : XviD
Duration : 1h 37mn
Bit rate : 2 228 Kbps
Width : 720 pixels
Height : 320 pixels
Display aspect ratio : 2.25:1
Frame rate : 25.000 fps
Color space : YUV
Chroma subsampling : 4:2:0
Bit depth : 8 bits
Scan type : Progressive
Compression mode : Lossy
Bits/(Pixel*Frame) : 0.387
Stream size : 1.52 GiB (74%)
Writing library : XviD 65

Audio #1
ID : 1
Format : AC-3
Format/Info : Audio Coding 3
Mode extension : CM (complete main)
Format settings, Endianness : Big
Codec ID : 2000
Duration : 1h 37mn
Bit rate mode : Constant
Bit rate : 384 Kbps
Channel(s) : 6 channels
Channel positions : Front: L C R, Side: L R, LFE
Sampling rate : 48.0 KHz
Bit depth : 16 bits
Compression mode : Lossy
Stream size : 268 MiB (13%)
Alignment : Split accross interleaves
Interleave, duration : 40 ms (1.00 video frame)
Interleave, preload duration : 500 ms

Audio #2
ID : 2
Format : AC-3
Format/Info : Audio Coding 3
Mode extension : CM (complete main)
Format settings, Endianness : Big
Codec ID : 2000
Duration : 1h 37mn
Bit rate mode : Constant
Bit rate : 192 Kbps
Channel(s) : 2 channels
Channel positions : Front: L R
Sampling rate : 48.0 KHz
Bit depth : 16 bits
Compression mode : Lossy
Stream size : 134 MiB (6%)
Alignment : Split accross interleaves
Interleave, duration : 40 ms (1.00 video frame)
Interleave, preload duration : 500 ms

Audio #3
ID : 3
Format : AC-3
Format/Info : Audio Coding 3
Mode extension : CM (complete main)
Format settings, Endianness : Big
Codec ID : 2000
Duration : 1h 37mn
Bit rate mode : Constant
Bit rate : 192 Kbps
Channel(s) : 2 channels
Channel positions : Front: L R
Sampling rate : 48.0 KHz
Bit depth : 16 bits
Compression mode : Lossy
Stream size : 134 MiB (6%)
Alignment : Split accross interleaves
Interleave, duration : 40 ms (1.00 video frame)
Interleave, preload duration : 500 ms
Релиз от: Leon-masl



Скачать Плачущий.убийца.Crying.Freeman.(Кристоф.Ганс).[1995.боевик.криминал.DVDRip].[DVO]+[MVO]+[AVO].torrent без регистрации
Золото ЗОЛОТАЯ РАЗДАЧА! СКАЧАННОЕ НЕ ЗАСЧИТЫВАЕТСЯ! Золото
Дата: Зарегистрирован   [ Тип: внутренний ] Как тут cкачать?
MAGNET ссылка
MAGNET ссылка


Скачать .torrent

11 KB

Статус: проверено DHT
Скачан: торрент - 136 раз, раздача полностью - 15 раз
Размер: 2,06 GB
Оценка:  - (Голосов: 0)
Поблагодарили: 1
Поделиться ссылкой на эту раздачу с друзьями:
В контактеFacebookОдноклассникиTwitterLivejournalМой МирLiveinternet
 

 
Показать сообщения:    


Вы не можете начинать темы
Вы не можете отвечать на сообщения
Вы не можете редактировать свои сообщения
Вы не можете удалять свои сообщения
Вы не можете голосовать в опросах
Вы не можете прикреплять файлы к сообщениям
Вы можете скачивать файлы